[TR24][OF] Franziska Pietsch & Detlev Eisinger - Franck & Szymanowski - Works for Violin & Piano - 2016 (Classical)

Ответить на тему
Статистика раздачи
Размер:  1012 MB   |    Зарегистрирован:  7 дней   |    Скачан:  0 раз

Полного источника не было: Никогда

 
   
 
 
Автор Сообщение

star21 ®

Пол: Женский

Стаж: 3 года 10 месяцев

Сообщений: 551989

Откуда: Екатеринбург

Создавать темы 11-Сен-2019 00:30

[Цитировать]

Franziska Pietsch & Detlev Eisinger / Franck & Szymanowski - Works for Violin & Piano Формат записи/Источник записи: [TR24][OF]
Наличие водяных знаков: Нет
Год издания/переиздания диска: 2016
Жанр: Classical
Издатель (лейбл): Audite
Продолжительность: 00:58:13
Наличие сканов в содержимом раздачи: Буклет PDFТреклист:
Szymanowski: Mythes, Op. 30 22:06
01. No. 1. The Fountain of Arethusa 5:55
02. No. 2. Narcissus 7:41
03. No. 3. Dryads and Pan 8:3004. Szymanowski: Romance in D major, Op. 23 6:42Franck, C: Violin Sonata in A major 29:25
05. I. Allegretto ben moderato 6:02
06. II. Allegro 9:09
07. III. Recitativo - Fantasia 7:25
08. IV. Allegretto poco mosso 6:49Franziska Pietsch (violin), Detlev Eisinger (piano)
Recorded: 22-24 November 2016
Recording Venue: Jesus-Christus-Kirche, Berlin-Dahlem, GermanyКонтейнер: FLAC (*.flac)
Тип рипа: tracksРазрядность: 24/96
Формат: PCM
Количество каналов: 2.0

BackCover

Лог проверки качества

foobar2000 1.4.5 / Dynamic Range Meter 1.1.1log date: 2019-09-10 19:14:16--------------------------------------------------------------------------------Analyzed: Franziska Pietsch / Szymanowski & Franck: Works for Violin & Piano--------------------------------------------------------------------------------DR         Peak         RMS     Duration Track--------------------------------------------------------------------------------DR15      -2.27 dB   -23.52 dB      5:55 01-Mythes. Trois poèmes, Op. 30: I. La fontaine d'ArethuseDR15      -0.50 dB   -23.08 dB      7:41 02-Mythes. Trois Poèmes, Op. 30: II. NarcisseDR14      -1.80 dB   -22.72 dB      8:30 03-Mythes. Trois Poèmes, Op. 30: III. Dryades et PanDR16      -0.50 dB   -22.46 dB      6:43 04-Romance, Op. 23DR15      -3.17 dB   -25.44 dB      6:03 05-Violin Sonata in A Major, FWV 8: I. Allegretto ben moderatoDR13      -2.35 dB   -20.88 dB      9:09 06-Violin Sonata in A Major, FWV 8: II. AllegroDR14      -4.68 dB   -25.09 dB      7:25 07-Violin Sonata in A Major, FWV 8: III. Recitativo-Fantasia (Moderato-Molto lento)DR13      -1.17 dB   -19.65 dB      6:49 08-Violin Sonata in A Major, FWV 8: IV. Allegretto poco mosso--------------------------------------------------------------------------------Number of tracks:  8Official DR value: DR14Samplerate:        96000 HzChannels:          2Bits per sample:   24Bitrate:           2566 kbpsCodec:             FLAC================================================================================
Источник (релизер): https://www.qobuz.com/gb-en/album/szymanowski-franck-works-for-violin-piano-franz...er/4022143977267

Чтобы скачать этот контент, Вам необходимо:
1. Скачать и установить торрент-клиент [клик для Windows], (для мобильного найдите на Play Маркет).
2. Кликнуть по [Скачать]


Внимание.
Если проверка ВЫ НЕ РОБОТ - не работает, значит Вы используете устаревший браузер.
Установите актуальный браузер и повторно кликните по [Скачать]
Безопасность: торрент-клиент разрешён АВ Касперского.

[asmlocator.ru].t663181.torrent 
Торрент: Зарегистрирован [ 2019-09-11 00:30 ] · 7D529BEA6554FA505688EBB6EFE5B3E268E24224

Скачать .torrent

Скачать

41 KB

Статус: проверено
Скачан: 0 раз
Размер: 1012 MB
terms.php
[Профиль] [ЛС]
Показать сообщения:    
Ответить на тему

Текущее время: 18-Сен 18:46

Часовой пояс: UTC ± 0



Вы не можете начинать темы
Вы не можете отвечать на сообщения
Вы не можете редактировать свои сообщения
Вы не можете удалять свои сообщения
Вы не можете голосовать в опросах
Вы не можете прикреплять файлы к сообщениям
Вы можете скачивать файлы
Верим фактам, а не вранью Путина! Факт, что Правительство ведёт Россию к истреблению.
Так как численность населения падает, даже не смотря на приток эмигрантов!
Русская нация вымирает и вырождается, смешиваясь с эмигрантами!
Факт, что военных и граждан предприятий заставляют голосовать за партию Единая Россия и Путина
ПОД СТРАХОМ УВОЛЬНЕНИЯ!
Нам не нужно Правительство, блокирующее личную жизнь, интернет, нарушающее сохранность данных.
Все эти действия финансируются за счёт народа!