Покемон: Зороарк - Повелительница Иллюзий (Фильм 13) / Pokemon The Movie: Zoroark - Master of Illusions [Movie][Без хардсаба][RUS(int)+ENG] [2010, детский, комедия, приключения, фэнтези, BDRemux][1080p][Американская версия]

Ответить на тему
Статистика раздачи
Размер:  19.21 GB   |    Зарегистрирован:  6 месяцев   |    Скачан:  0 раз

Полного источника не было: Никогда

 
   
 
 
Автор Сообщение

star21 ®

Пол: Женский

Стаж: 4 года 3 месяца

Сообщений: 551946

Откуда: Екатеринбург

Создавать темы 23-Авг-2019 17:50

[Цитировать]

Покемон Фильм 13: Зороарк - Повелительница Иллюзий
Pokemon The Movie 13: Zoroark - Master of Illusions
Страна: Япония / США
Год выпуска: 10 июля 2010 г.
Жанр: детский, комедия, приключения, фэнтези.
Тип: Movie
Продолжительность: 95 мин
Режиссер: Кунихико Юяма
Студия: Oriental Light and Magic (OLM)Описание: В городе Краун начинается новое спортивное состязание. Эш Кетчум, Брок и Доун направляются в город, чтобы посетить предстоящий турнир. Однако, благодаря предчувствию Брока, команда Эша теряет направление пути, подбирая по дороге необычного Покемон Зоруа. Существо потерялось и просит Эша и его друзьям помочь ему найти их маму Покемона Зороарк, который был захвачен злым человеком Коудаи Грингсом – нынешним лидером турнира. Вместе с Зоруа команда направляется в сторону города. Им пока неизвестно, что Грингс готов осуществить зловещий план, который угрожает всему городу. Что еще странного и опасного может произойти в городе Краун? Почему Покемон Селеби вдруг вернулся после исчезновения на двадцать лет? И почему могучий Покемон Зороарк готов выплеснуть весь гнев на город? На поиски ответов ведет путь, полный опасностей, и Эш вместе со своими верными спутниками готов найти достаточно мужества, силы и дружбы, чтобы спасти город Краун!Релиз подготовил LightEssence
  • Источник BluRay:
    kakeruSMC [пользователь трекера ADC]
    Viz Media
  • Производство русского дубляжа: SDI Media Russia
    • Источник дубляжа: Польский DVD9
      TIM film studio / A Division of NBC Universal
      Качество: BDRemux | Тип релиза: Без хардсаба | Формат видео: MKV | Совместимость с бытовыми плеерами: Нетв составе контейнера:
      Видео: AVC(8bit), 1920х1080, ~26Mb/s, 23.976 fps(NTSC)
      Аудио 1: AC3, 192kbps, 48kHz, 2ch - Русский; [DUB] - Многоголосый, Дублированный [SDI Media Russia]
      Аудио 2: DTS-HD MA, 2074kbps, 48kHz, 5.1ch, 24-bit - Английский; [DUB] - Многоголосый, Дублированный [Оригинал]
      Аудио 3: E-AC3, 640kbps, 48kHz, 5.1ch - Английский; [DUB] - Многоголосый, Дублированный [Оригинал]

      Скриншоты

      Отличия

      Подробные тех. данные

      Код:
      General
      Unique ID : 193092899957495586805007919931304228698 (0x914456FDA2B1B0E3F4CF307002BCB75A)
      Complete name : Z:\Pokemon the Movie [BDRemux]\Pokemon the Movie 13 - Zoroark - Master of Illusions [BDRemux-1080p][LightEssence].mkv
      Format : Matroska
      Format version : Version 4
      File size : 19.2 GiB
      Duration : 1 h 35 min
      Overall bit rate mode : Variable
      Overall bit rate : 28.8 Mb/s
      Encoded date : UTC 2019-07-21 17:55:30
      Writing application : mkvmerge v32.0.0 ('Astral Progressions') 64-bit
      Writing library : libebml v1.3.7 + libmatroska v1.5.0Video
      ID : 1
      Format : AVC
      Format/Info : Advanced Video Codec
      Format profile : High@L4.1
      Format settings : CABAC / 4 Ref Frames
      Format settings, CABAC : Yes
      Format settings, ReFrames : 4 frames
      Codec ID : V_MPEG4/ISO/AVC
      Duration : 1 h 35 min
      Bit rate mode : Variable
      Bit rate : 26.0 Mb/s
      Maximum bit rate : 35.0 Mb/s
      Width : 1 920 pixels
      Height : 1 080 pixels
      Display aspect ratio : 16:9
      Frame rate mode : Constant
      Frame rate : 23.976 (24000/1001) FPS
      Standard : NTSC
      Color space : YUV
      Chroma subsampling : 4:2:0
      Bit depth : 8 bits
      Scan type : Progressive
      Bits/(Pixel*Frame) : 0.522
      Stream size : 17.3 GiB (90%)
      Title : Pokemon The Movie 13: Zoroark - Master of Illusions - BDRemux-1080p [2010]
      Language : English
      Default : Yes
      Forced : No
      Color range : Limited
      Color primaries : BT.709
      Transfer characteristics : BT.709
      Matrix coefficients : BT.709Audio #1
      ID : 2
      Format : AC-3
      Format/Info : Audio Coding 3
      Commercial name : Dolby Digital
      Codec ID : A_AC3
      Duration : 1 h 35 min
      Bit rate mode : Constant
      Bit rate : 192 kb/s
      Channel(s) : 2 channels
      Channel layout : L R
      Sampling rate : 48.0 kHz
      Frame rate : 31.250 FPS (1536 SPF)
      Bit depth : 16 bits
      Compression mode : Lossy
      Stream size : 131 MiB (1%)
      Title : RUS [DUB] - Многоголосый, Дублированный [SDI Media Russia]
      Language : Russian
      Service kind : Complete Main
      Default : Yes
      Forced : NoAudio #2
      ID : 3
      Format : DTS XLL
      Format/Info : Digital Theater Systems
      Commercial name : DTS-HD Master Audio
      Codec ID : A_DTS
      Duration : 1 h 35 min
      Bit rate mode : Variable
      Bit rate : 2 074 kb/s
      Channel(s) : 6 channels
      Channel layout : C L R Ls Rs LFE
      Sampling rate : 48.0 kHz
      Frame rate : 93.750 FPS (512 SPF)
      Bit depth : 16 bits
      Compression mode : Lossless
      Stream size : 1.38 GiB (7%)
      Language : English
      Default : No
      Forced : NoAudio #3
      ID : 4
      Format : E-AC-3
      Format/Info : Enhanced AC-3
      Commercial name : Dolby Digital Plus
      Codec ID : A_EAC3
      Duration : 1 h 35 min
      Bit rate mode : Constant
      Bit rate : 640 kb/s
      Channel(s) : 6 channels
      Channel layout : L R C LFE Ls Rs
      Sampling rate : 48.0 kHz
      Frame rate : 31.250 FPS (1536 SPF)
      Compression mode : Lossy
      Stream size : 436 MiB (2%)
      Language : English
      Service kind : Complete Main
      Default : No
      Forced : NoMenu
      00:00:00.000 : :Глава 01
      00:11:28.813 : :Глава 02
      00:20:49.414 : :Глава 03
      00:29:40.820 : :Глава 04
      00:40:16.664 : :Глава 05
      00:47:53.704 : :Глава 06
      00:53:21.198 : :Глава 07
      01:00:47.268 : :Глава 08
      01:07:26.667 : :Глава 09
      01:14:49.735 : :Глава 10
      01:22:13.511 : :Глава 11
      01:30:28.047 : :Глава 12
      Обновление раздачи: 21.07.2019 Зеркало раздачи на Google Drive
  • Чтобы скачать этот контент, Вам необходимо:
    1. Скачать и установить торрент-клиент [клик для Windows], (для мобильного найдите на Play Маркет).
    2. Кликнуть по [Скачать]


    Внимание.
    Если проверка ВЫ НЕ РОБОТ - не работает, значит Вы используете устаревший браузер.
    Установите актуальный браузер и повторно кликните по [Скачать]
    Безопасность: торрент-клиент разрешён АВ Касперского.

    [asmlocator.ru].t659421.torrent 
    Торрент: Зарегистрирован [ 2019-08-23 17:50 ] · 3D87703C68FEA2FE39CCE16C7E82BBF07348F3D9

    Скачать .torrent

    Скачать

    49 KB

    Статус: проверено
    Скачан: 0 раз
    Размер: 19.21 GB
    terms.php
    [Профиль] [ЛС]
    Показать сообщения:    
    Ответить на тему

    Текущее время: 23-Фев 23:00

    Часовой пояс: UTC ± 0



    Вы не можете начинать темы
    Вы не можете отвечать на сообщения
    Вы не можете редактировать свои сообщения
    Вы не можете удалять свои сообщения
    Вы не можете голосовать в опросах
    Вы не можете прикреплять файлы к сообщениям
    Вы можете скачивать файлы
    Верим фактам, а не вранью Путина! Факт, что Правительство ведёт Россию к истреблению.
    Так как численность населения падает, даже не смотря на приток эмигрантов!
    Русская нация вымирает и вырождается, смешиваясь с эмигрантами!
    Факт, что военных и граждан предприятий заставляют голосовать за партию Единая Россия и Путина
    ПОД СТРАХОМ УВОЛЬНЕНИЯ!
    Нам не нужно Правительство, блокирующее личную жизнь, интернет, нарушающее сохранность данных.
    Все эти действия финансируются за счёт народа!