GFRIEND - Sunrise [2019, Kpop, Web-DL, 1080p]

Reply to topic
DL-List and Torrent activity
Size:  708 MB   |    Registered:  10 days   |    Completed:  0 times

Seeder not seen: Never

 
   
 
 
Author Message

star21 ®

Gender: Female

Longevity: 3 years 9 months

Posts: 551989

Location: Екатеринбург

Post 11-Aug-2019 10:14

[Quote]

GFRIEND - Sunrise Жанр: Kpop
Продолжительность: 00:03:54
Год выпуска: 2019Описание: Корейская группа GFRIEND всегда отличалась от других девичьих проектов своими трогательными песнями и сказочными клипами. Sunrise не стал исключением. Несмотря на уже долгое пребывание на Kpop-сцене участницы не изменяли своими первоначальному имиджу (что редкость в настоящее время). Очаровательные и невинные девочки снова завоевывают сердца фанатов по всему миру.Доп. информация: Видео от Bugs!Качество: WebDL
Разрешение видео/развертка: 1080p
Контейнер: MPEG4
Видео кодек: AVC
Аудио кодек: AAC
Видео: 1920 x 1080 (1.778) at 23.976 fps AVC at 25,0 Мбит/сек
Аудио: 2 канала, 48,0 КГц AAC at 317 Кбит/сек

Отчёт MediaInfo / BDInfo

Формат                                   : MPEG-4Профиль формата                          : Base Media / Version 2Идентификатор кодека                     : mp42 (mp42/mp41)Размер файла                             : 708 МбайтПродолжительность                        : 3 м. 54 с.Режим общего битрейта                    : ПеременныйОбщий поток                              : 25,3 Мбит/сек©TIM                                     : 00:00:00:00©TSC                                     : 24000©TSZ                                     : 1001ВидеоИдентификатор                            : 1Формат                                   : AVCФормат/Информация                        : Advanced Video CodecПрофиль формата                          : Main@L4.1Параметр CABAC формата                   : ДаПараметр ReFrames формата                : 4 кадраПараметр GOP формата                     : M=4, N=23Идентификатор кодека                     : avc1Идентификатор кодека/Информация          : Advanced Video CodingПродолжительность                        : 3 м. 54 с.Битрейт                                  : 25,0 Мбит/секШирина                                   : 1920 пикселейВысота                                   : 1080 пикселейСоотношение сторон                       : 16:9Режим частоты кадров                     : ПостоянныйЧастота кадров                           : 23,976 (24000/1001) кадра/секЦветовое пространство                    : YUVСубдискретизация насыщенности            : 4:2:0Битовая глубина                          : 8 битТип развёртки                            : ПрогрессивнаяБит/(Пиксели*Кадры)                      : 0.502Размер потока                            : 699 Мбайт (99%)Язык                                     : EnglishЦветовой диапазон                        : LimitedОсновные цвета                           : BT.709Характеристики трансфера                 : BT.709Коэффициенты матрицы                     : BT.709АудиоИдентификатор                            : 2Формат                                   : AACФормат/Информация                        : Advanced Audio CodecПрофиль формата                          : LCИдентификатор кодека                     : 40Продолжительность                        : 3 м. 54 с.Продолжительность оригинала              : 3 м. 54 с.Вид битрейта                             : ПеременныйБитрейт                                  : 317 Кбит/секМаксимальный битрейт                     : 404 Кбит/секКаналы                                   : 2 каналаРасположение каналов                     : Front: L RЧастота                                  : 48,0 КГцЧастота кадров                           : 46,875 кадров/сек (1024 spf)Метод сжатия                             : С потерямиРазмер потока                            : 8,88 Мбайт (1%)Размер потока оригинала                  : 8,88 Мбайт (1%)Язык                                     : English

Скриншоты


To download the content you need:
1. Download and install torrent client [for Windows] or for mobile system
2. Click on [Download]
Attention.
If the test YOU are NOT a ROBOT - does not work, then You are using an outdated browser.
Install the current browser and click on [Download]
Security: torrent client is allowed by Kaspersky.

[asmlocator.ru].t655963.torrent 
Torrent: Registered [ 2019-08-11 10:14 ] · 7570FCFCE6BBA78A0EA8E2CAF69F4D5BD08404B1

Download .torrent

Download

14 KB

Status: checked
Completed: 0 times
Size: 708 MB
terms.php
[Profile] [PM]
Display posts:    
Reply to topic

Current time is: 21-Aug 10:32

All times are UTC ± 0



You cannot post new topics in this forum
You cannot reply to topics in this forum
You cannot edit your posts in this forum
You cannot delete your posts in this forum
You cannot vote in polls in this forum
You cannot attach files in this forum
You can download files in this forum