Отторжение (Владимир Лерт) [2009, Украина, фантасмагория, триллер, драма, TVRip]

Reply to topic
DL-List and Torrent activity
Size:  745 MB   |    Registered:  18 days   |    Completed:  0 times

Seeder not seen: Never

 
   
 
 
Author Message

star21 ®

Gender: Female

Longevity: 3 years 9 months

Posts: 551989

Location: Екатеринбург

Post 02-Aug-2019 19:10

[Quote]

Отторжение Страна: Украина
Жанр: фантасмагория, триллер, драма
Год выпуска: 2009
Продолжительность: 01:27:21Перевод: Не требуется
Субтитры: нет
Режиссер: Владимир ЛертВ ролях:
Сергей Бабкин, Богдан Ступка, Олесь Кацион, Виктория Билан, Кирилл Кашликов, Владимир Левицкий, Евгения Удовенко, Анатолий Борисенко, Агния Дитковските, Александр Ганноченко, Александр Баширов, Александр Печерица, Алексей Мороз, Александр Светляков, Максим Максимюк, Виктор Черняков, Инна Капинос, Артем Менделенко, Роман Негриенко, Роман Агиенко, КлифОписание:
Это история любви при необычных обстоятельствах. По сюжету картины люди в спешке покидают город, небо над которым стало нефритово-зеленого цвета. Все вокруг покрывается стремительно разрастающейся зеленой плесенью, поглощающей все живое. По улице идут колонны танков и бронетехники. Некоторые пешеходы, бесцельно шатающиеся по улицам, ведут себя неадекватно — выкрикивают бессвязные предложения, машут руками и механически совершают нецелесообразные действия. Главному герою картины предстоит выяснить, что происходит с городом — вторжение инопланетного разума или последствия неудачного испытания военных?Доп. информация:
[imdb]http://www.imdb.com/title/tt1822279[/imdb]Спасибо за исходник armancheg!Качество видео: TVRip
Формат видео: AVIВидео: 640x256 (2.50:1), 25 fps, DivX Codec 6.8.5/6.9.1 ~1054 kbps avg, 0.26 bit/pixel
Аудио: 48 kHz, MPEG Layer 3, 2 ch, ~128.00 kbps avg Сэмпл

MediaInfo

Общее
Полное имя : C:\Films\Отторжение_745\Отторжение_745.avi
Формат : AVI
Формат/Информация : Audio Video Interleave
Размер файла : 745 Мбайт
Продолжительность : 1 ч. 27 м.
Общий поток : 1192 Кбит/сек
Программа кодирования : VirtualDubModRus 1.5.10.2 (build 2540/release)
Библиотека кодирования : VirtualDubMod build 2540/releaseВидео
Идентификатор : 0
Формат : MPEG-4 Visual
Параметр BVOP формата : 1
Параметр QPel формата : Нет
Параметр GMC формата : Без точки перехода
Параметр матрицы формата : Выборочная
Режим смешивания : Сжатый битовый поток
Идентификатор кодека : DX50
Идентификатор кодека/Подсказка : DivX 5
Продолжительность : 1 ч. 27 м.
Битрейт : 1055 Кбит/сек
Ширина : 640 пикселей
Высота : 256 пикселей
Соотношение сторон : 2,500
Частота кадров : 25,000 кадров/сек
Цветовое пространство : YUV
Субдискретизация насыщенности : 4:2:0
Битовая глубина : 8 бит
Тип развёртки : Прогрессивная
Метод сжатия : С потерями
Бит/(Пиксели*Кадры) : 0.257
Размер потока : 659 Мбайт (88%)
Библиотека кодирования : DivX 6.8.5 (UTC 2009-08-20)Аудио
Идентификатор : 1
Формат : MPEG Audio
Версия формата : Version 1
Профиль формата : Layer 3
Идентификатор кодека : 55
Идентификатор кодека/Подсказка : MP3
Продолжительность : 1 ч. 27 м.
Вид битрейта : Постоянный
Битрейт : 128 Кбит/сек
Каналы : 2 канала
Частота : 48,0 КГц
Метод сжатия : С потерями
Размер потока : 80,0 Мбайт (11%)
Выравнивание : Соединение по промежуткам
Продолжительность промежутка : 40 мс. (1,00 видеокадр)
Время предзагрузки промежутка : 504 мс.

Скриншот c названием фильма

Скриншоты


To download the content you need:
1. Download and install torrent client [for Windows] or for mobile system
2. Click on [Download]
Attention.
If the test YOU are NOT a ROBOT - does not work, then You are using an outdated browser.
Install the current browser and click on [Download]
Security: torrent client is allowed by Kaspersky.

[asmlocator.ru].t655388.torrent 
Torrent: Registered [ 2019-08-02 19:10 ] · 95611420DC532538036F51B88E55ADB66EE0AC42

Download .torrent

Download

15 KB

Status: checked
Completed: 0 times
Size: 745 MB
terms.php
[Profile] [PM]

Krasnowekk

Gender: Male

Longevity: 16 days

Posts: 7

Location: Russia

Post 10-Aug-2019 13:25 (after 7 days)

[Quote]

Какие нужны или не нужны кодеки....
У меня жутко тормозит уже при открытии файла, потом вообще висит
Все разобрался.... пора медиа плеер - на помойку
[Profile] [PM]
Display posts:    
Reply to topic

Current time is: 21-Aug 10:33

All times are UTC ± 0



You cannot post new topics in this forum
You cannot reply to topics in this forum
You cannot edit your posts in this forum
You cannot delete your posts in this forum
You cannot vote in polls in this forum
You cannot attach files in this forum
You can download files in this forum