УЗБЕКИСТАН - восточная сказка в 3Д / 3D (Alex Вязьма) [2019, документальный, HDTV] Half SideBySide / Горизонтальная анаморфная стереопара

Reply to topic
DL-List and Torrent activity
Size:  6.46 GB   |    Registered:  23 days   |    Completed:  0 times

Seeder not seen: Never

 
   
 
 
Author Message

star21 ®

Gender: Female

Longevity: 3 years 9 months

Posts: 551989

Location: Екатеринбург

Post 28-Jul-2019 22:20

[Quote]

УЗБЕКИСТАН - восточная сказка в 3D Год выпуска: 2019
Страна: Россия
Студия: А-студия
Жанр: документальный, любительский
Продолжительность: 00:35:49Русские субтитры: нет
Режиссер на русском: Alex Вязьма
Описание: Текст от автора: В детстве я увлекался филателией. Марки мы не только собирали, но и играли в них на выигрыш. И вот в одной из игр я выиграл марку "Ташкент 2000". Какой красивый город, - подумал я тогда, - хорошо бы туда попасть! И вот спустя треть века я туда попал. Мы преземлимся в Ташкенте. Осмотр города начнем с центрального сквера города - сквера Амира Тимура, зайдем на площадь Мустакиллик, увидим Дворец князя Николая Романова, прогуляемся по парку имени Алишера Навои, посетим памятник "Мужество", построенного в память Ташкентского землятрясения 1966 года, осмотрим бывшую резиденцию президента Ислама Каримова, побываем на банкете в гостинице Интер Континенталь, осмотрим исторический комплекс Хазрати Имам, медресе Абдулкасим Шейха и современную мечеть Минор. Сядем на узбекский экспресс Афросиаб и перенесемся в Самарканд. Там посмотрим экскурсию по городу: площадь Регистан, мавзолей Тамерлана - Гур Эмир, с которым связана зловещая легенда гробницы Тамерлана из-за вскрытия которой, началась Великая Отечественная война. Увидим обсерваторию Улугбека, мавзолей Ходжа Даниёр и музей истории Самарканда. Вернемся в Ташкент и прокатимся в Ташкентском метро. В общем будет интересно.Бонусы: Бонусы: Другие раздачи:
"Галопом по Европам в 3D"
"Итальянский калейдоскоп в 3D"
"Казань в 3D"
"Вылазка в Прибалтику в 3D"
"ФРАНЦИЯ - тур морской волны в 3D"Качество: HDrip
Контейнер: TS
Формат 3D: Half SideBySide / Горизонтальная анаморфная стереопара
Порядок ракурсов: левый ракурс первый
Видео кодек: h.264
Аудио кодек: AC3
Видео: MTS, PAL, 1920х1080i, VBR, 16:9, 24,4 Мбит/сек, 25 кадров в секунду
Аудио: русский, AC3, 6 каналов, 384 кбит/сек

MediaInfo

Общее
Идентификатор : 1 (0x1)
Полное имя : F:\Видео\Домашнее видео\Видео в 3D\Узбекистан 3D.mts
Формат : BDAV
Формат/Информация : Blu-ray Video
Размер файла : 6,46 Гбайт
Продолжительность : 35 м. 49 с.
Режим общего битрейта : Переменный
Общий поток : 25,8 Мбит/сек
Максимальный общий битрейт : 30,7 Мбит/секВидео
Идентификатор : 4113 (0x1011)
Идентификатор меню : 1 (0x1)
Формат : AVC
Формат/Информация : Advanced Video Codec
Профиль формата : High@L4.1
Настройки формата : CABAC / 2 Ref Frames
Параметр CABAC формата : Да
Параметр RefFrames формата : 2 кадра
Идентификатор кодека : 27
Продолжительность : 35 м. 48 с.
Вид битрейта : Переменный
Битрейт : 24,4 Мбит/сек
Максимальный битрейт : 25,6 Мбит/сек
Ширина : 1920 пикселей
Высота : 1080 пикселей
Соотношение сторон : 16:9
Частота кадров : 25,000 кадров/сек
Цветовое пространство : YUV
Субдискретизация насыщенности : 4:2:0
Битовая глубина : 8 бит
Тип развёртки : Чересстрочная
Метод сохранения типа развёртки : Раздельные поля
Порядок развёртки : Верхнее поле первое
Бит/(Пиксели*Кадры) : 0.471
Размер потока : 6,10 Гбайт (94%)Аудио
Идентификатор : 4352 (0x1100)
Идентификатор меню : 1 (0x1)
Формат : AC-3
Формат/Информация : Audio Coding 3
Коммерческое название : Dolby Digital
Идентификатор кодека : 129
Продолжительность : 35 м. 48 с.
Вид битрейта : Постоянный
Битрейт : 384 Кбит/сек
Каналы : 6 каналов
ChannelLayout : L R C LFE Ls Rs
Частота : 48,0 КГц
Частота кадров : 31,250 кадров/сек (1536 SPF)
Битовая глубина : 16 бит
Метод сжатия : С потерями
Размер потока : 98,4 Мбайт (1%)
ServiceKind/String : Complete Main

Скриншоты


To download the content you need:
1. Download and install torrent client [for Windows] or for mobile system
2. Click on [Download]
Attention.
If the test YOU are NOT a ROBOT - does not work, then You are using an outdated browser.
Install the current browser and click on [Download]
Security: torrent client is allowed by Kaspersky.

[asmlocator.ru].t653946.torrent 
Torrent: Registered [ 2019-07-28 22:20 ] · 424A6DEBA611C5A686795AF9BFED8CB6328F2FFE

Download .torrent

Download

17 KB

Status: checked
Completed: 0 times
Size: 6.46 GB
terms.php
[Profile] [PM]
Display posts:    
Reply to topic

Current time is: 21-Aug 10:31

All times are UTC ± 0



You cannot post new topics in this forum
You cannot reply to topics in this forum
You cannot edit your posts in this forum
You cannot delete your posts in this forum
You cannot vote in polls in this forum
You cannot attach files in this forum
You can download files in this forum