Женская плоть: Мои красные кишки / Watashi no akai harawata (hana) / Women\'s Flesh: My Red Guts (Тамакичи Анару / Tamakichi Anaru) [1999, Япония, Horror, DVD5] + Sub Eng + Original Jpn

Reply to topic
DL-List and Torrent activity
Size:  1.92 GB   |    Registered:  25 days   |    Completed:  0 times

Seeder not seen: Never

 
   
 
 
Author Message

star21 ®

Gender: Female

Longevity: 3 years 9 months

Posts: 551989

Location: Екатеринбург

Post 26-Jul-2019 23:20

[Quote]

Женская плоть: Мои красные кишки
Watashi no akai harawata (hana)
Women's Flesh: My Red Guts
Оригинальное название: Watashi no akai harawata (hana)
Страна: Япония / Japan
Студия: Barokku
Жанр: Horror
Год выпуска: 1999
Продолжительность: 00:41:16Перевод: Отсутствует
Субтитры: Английские / English
Оригинальная аудиодорожка: Японский / JapaneseРежиссер: Тамакичи Анару / Tamakichi AnaruВ ролях: Не известно / UnknownОписание:
A woman is abandoned by her husband, so she copes with her grief through violence. As she holds a toothbrush, she decides to use it in a violent, sexual way to release her tensions. As she inflicts horrific pain and mutilation upon herself, she hopes to relieve the flood of negative emotions. But the more she harms herself, the more she wants to cause even more damage, soon covered in blood and barely alive.Перевод от Гугла:
Женщина оставлена своим мужем, поэтому она справляется со своим горем через насилие. Держа зубную щетку, она решает использовать ее насильственным, сексуальным способом, чтобы снять напряжение. Поскольку она причиняет ужасную боль и увечья себе, она надеется ослабить поток негативных эмоций. Но чем больше она причиняет себе вред, тем больше она хочет нанести еще больший урон, скоро залитая кровью и едва живая.Доп. информация:
У азиатов взял на их трекере, кто перевод или субтитры осилит я не против поглощения релиза (Здесь действительно перевод не требуется, если честно)Лицам, не достигшим 21-ого года к просмотру не рекомендованоСэмпл: http://multi-up.com/1236364Тип релиза: DVD5
Контейнер: DVD-VideoВидео: MPEG2 Video 720x480 (4:3) 29.97fps [V: mpeg2 main, yuv420p, 720x480] Variable Bitrate (max 7000 kb/s)
Аудио: Dolby AC3 48000Hz stereo 192kbps [A: ac3, 48000 Hz, stereo, 192 kb/s]
Формат субтитров: prerendered (DVD/IDX+SUB)

Media Info

GeneralComplete name                  : D:\Torrents\Womens_Flesh_My_Red_Guts\VIDEO_TS\VIDEO_TS.IFOFormat                         : DVD VideoFormat profile                 : MenuFile size                      : 26.0 KiBOverall bit rate mode          : VariableVideoID                             : 224 (0xE0)Format                         : MPEG VideoFormat version                 : Version 2Bit rate mode                  : VariableWidth                          : 720 pixelsHeight                         : 480 pixelsDisplay aspect ratio           : 4:3Frame rate                     : 29.970 (29970/1000) FPSStandard                       : NTSCCompression mode               : LossyTextFormat                         : RLEFormat/Info                    : Run-length encodingBit depth                      : 2 bitsGeneralComplete name               : D:\Torrents\Womens_Flesh_My_Red_Guts\VIDEO_TS\VTS_03_1.VOBFormat                      : MPEG-PSFile size                   : 1 024 MiBDuration                    : 27 min 3 sOverall bit rate mode       : VariableOverall bit rate            : 5 290 kb/sVideoID                          : 224 (0xE0)Format                      : MPEG VideoFormat version              : Version 2Format profile              : Main@MainFormat settings             : BVOPFormat settings, BVOP       : YesFormat settings, Matrix     : DefaultFormat settings, GOP        : M=3, N=12Format settings, picture st : FrameDuration                    : 27 min 3 sBit rate mode               : VariableBit rate                    : 4 993 kb/sMaximum bit rate            : 7 000 kb/sWidth                       : 720 pixelsHeight                      : 480 pixelsDisplay aspect ratio        : 4:3Frame rate                  : 29.970 (30000/1001) FPSStandard                    : NTSCColor space                 : YUVChroma subsampling          : 4:2:0Bit depth                   : 8 bitsScan type                   : InterlacedScan order                  : Bottom Field FirstCompression mode            : LossyBits/(Pixel*Frame)          : 0.482Time code of first frame    : 00:00:00;00Time code source            : Group of pictures headerGOP, Open/Closed            : ClosedStream size                 : 966 MiB (94%)AudioID                          : 189 (0xBD)-128 (0x80)Format                      : AC-3Format/Info                 : Audio Coding 3Commercial name             : Dolby DigitalMuxing mode                 : DVD-VideoDuration                    : 27 min 3 sBit rate mode               : ConstantBit rate                    : 192 kb/sChannel(s)                  : 2 channelsChannel layout              : L RSampling rate               : 48.0 kHzFrame rate                  : 31.250 FPS (1536 SPF)Bit depth                   : 16 bitsCompression mode            : LossyStream size                 : 37.2 MiB (4%)Service kind                : Complete MainMenuGeneralComplete name               : D:\Torrents\Womens_Flesh_My_Red_Guts\VIDEO_TS\VTS_03_2.VOBFormat                      : MPEG-PSFile size                   : 556 MiBDuration                    : 14 min 44 sOverall bit rate mode       : VariableOverall bit rate            : 5 277 kb/sVideoID                          : 224 (0xE0)Format                      : MPEG VideoFormat version              : Version 2Format profile              : Main@MainFormat settings             : BVOPFormat settings, BVOP       : YesFormat settings, Matrix     : DefaultFormat settings, GOP        : M=3, N=12Format settings, picture st : FrameDuration                    : 14 min 44 sBit rate mode               : VariableBit rate                    : 4 980 kb/sMaximum bit rate            : 7 000 kb/sWidth                       : 720 pixelsHeight                      : 480 pixelsDisplay aspect ratio        : 4:3Frame rate                  : 29.970 (30000/1001) FPSStandard                    : NTSCColor space                 : YUVChroma subsampling          : 4:2:0Bit depth                   : 8 bitsScan type                   : InterlacedScan order                  : Bottom Field FirstCompression mode            : LossyBits/(Pixel*Frame)          : 0.481Time code of first frame    : 00:27:04;02Time code source            : Group of pictures headerGOP, Open/Closed            : ClosedStream size                 : 525 MiB (94%)AudioID                          : 189 (0xBD)-128 (0x80)Format                      : AC-3Format/Info                 : Audio Coding 3Commercial name             : Dolby DigitalMuxing mode                 : DVD-VideoDuration                    : 14 min 44 sBit rate mode               : ConstantBit rate                    : 192 kb/sChannel(s)                  : 2 channelsChannel layout              : L RSampling rate               : 48.0 kHzFrame rate                  : 31.250 FPS (1536 SPF)Bit depth                   : 16 bitsCompression mode            : LossyDelay relative to video     : -278 msStream size                 : 20.2 MiB (4%)Service kind                : Complete MainMenu

DVD Info

Title: Womens_Flesh_My_Red_GutsSize: 1.92 Gb ( 2 015 152,00 KBytes ) - DVD-5Enabled regions: 1, 2, 3, 4, 5, 6, 7, 8VTS_01 :  Play Length: 00:00:10  Video: NTSC 16:9 (720x480) VBR, Auto Letterboxed  Audio:      English (Dolby AC3, 2 ch)VTS_02 :  Play Length: 00:00:17  Video: NTSC 16:9 (720x480) VBR, Auto Letterboxed  Audio:      English (Dolby AC3, 2 ch)VTS_03 :  Play Length: 00:41:46  Video: NTSC 4:3 (720x480) VBR  Audio:      English (Dolby AC3, 2 ch)  Subtitles:      EnglishVTS_04 :  Play Length: 00:01:41  Video: NTSC 16:9 (720x480) VBR, Auto Letterboxed  Audio:      English (Dolby AC3, 2 ch)VTS_05 :  Play Length: 00:02:17  Video: NTSC 16:9 (720x480) VBR, Auto Letterboxed  Audio:      English (Dolby AC3, 2 ch)VTS_06 :  Play Length: 00:02:56  Video: NTSC 16:9 (720x480) VBR, Auto Letterboxed  Audio:      English (Dolby AC3, 2 ch)VTS_07 :  Play Length: 00:00:40  Video: NTSC 16:9 (720x480) VBR, Auto Letterboxed  Audio:      English (Dolby AC3, 2 ch)VTS_08 :  Play Length: 00:00:28  Video: NTSC 16:9 (720x480) VBR, Auto Letterboxed  Audio:      English (Dolby AC3, 2 ch)VTS_09 :  Play Length: 00:01:37  Video: NTSC 16:9 (720x480) VBR, Auto Letterboxed  Audio:      English (Dolby AC3, 2 ch)* Menus Information *VIDEO_TS MenuVideo:      NTSC 4:3 (720x480) VBREnglish Language Unit :      Title MenuVTS_01 MenuVideo:      NTSC 4:3 (720x480) VBRAudio:      Not specified (Dolby AC3, 2 ch)English Language Unit :      Root MenuVTS_02 MenuVideo:      NTSC 4:3 (720x480) VBREnglish Language Unit :      Root MenuVTS_03 MenuVideo:      NTSC 4:3 (720x480) VBREnglish Language Unit :      Root MenuVTS_04 MenuVideo:      NTSC 4:3 (720x480) VBREnglish Language Unit :      Root MenuVTS_05 MenuVideo:      NTSC 4:3 (720x480) VBREnglish Language Unit :      Root MenuVTS_06 MenuVideo:      NTSC 4:3 (720x480) VBREnglish Language Unit :      Root MenuVTS_07 MenuVideo:      NTSC 4:3 (720x480) VBREnglish Language Unit :      Root MenuVTS_08 MenuVideo:      NTSC 4:3 (720x480) VBREnglish Language Unit :      Root MenuVTS_09 MenuVideo:      NTSC 4:3 (720x480) VBREnglish Language Unit :      Root Menu

Скриншоты меню

Скриншоты


To download the content you need:
1. Download and install torrent client [for Windows] or for mobile system
2. Click on [Download]
Attention.
If the test YOU are NOT a ROBOT - does not work, then You are using an outdated browser.
Install the current browser and click on [Download]
Security: torrent client is allowed by Kaspersky.

[asmlocator.ru].t653489.torrent 
Torrent: Registered [ 2019-07-26 23:20 ] · 09E47B3680C38F6444D81E75C4D6F4BC3DBF0353

Download .torrent

Download

6 KB

Status: checked
Completed: 0 times
Size: 1.92 GB
terms.php
[Profile] [PM]
Display posts:    
Reply to topic

Current time is: 21-Aug 10:32

All times are UTC ± 0



You cannot post new topics in this forum
You cannot reply to topics in this forum
You cannot edit your posts in this forum
You cannot delete your posts in this forum
You cannot vote in polls in this forum
You cannot attach files in this forum
You can download files in this forum