(Electronic, Folk, World, & Country) [CD] Erlend Krauser - Flight Of The Phoenix - 1994, FLAC (image+.cue), lossless

Reply to topic
DL-List and Torrent activity
Size:  247 MB   |    Registered:  1 month 8 days   |    Completed:  0 times

Seeder not seen: Never

 
   
 
 
Author Message

star21 ®

Gender: Female

Longevity: 3 years 9 months

Posts: 551989

Location: Екатеринбург

Post 13-Jul-2019 08:10

[Quote]

Erlend Krauser / Flight Of The Phoenix Жанр: Electronic, Folk, World, & Country
Носитель: CD
Страна-производитель диска (релиза): US
Год издания: 1994
Издатель (лейбл): Higher Octave Music
Номер по каталогу: HOMCD 7059
Аудиокодек: FLAC (*.flac)
Тип рипа: image+.cue
Продолжительность: 00:48:42
Источник: собственный рип
Наличие сканов в содержимом раздачи: нет
Треклист:
1. Riders On The Storm 6:50
2. Conjunction Of Contrasts 4:20
3. Flight Of The Phoenix 5:10
4. Doina Celui Care Fuge Dupa Bani 4:21
5. Wayfaring Stranger 3:53
6. Strawberry Fields Forever 4:01
7. Samba Boulevard 5:16
8. Erlando Furioso 4:03
9. Tears On Leaves 3:43
10. Pasari Albe 4:47
11. The Final Fade 2:18

Лог создания рипа

Exact Audio Copy V1.1 from 23. June 2015EAC extraction logfile from 18. March 2019, 20:57Erlend Krauser / Flight of the PhoenixUsed drive  : PIONEER BD-RW   BDR-208M   Adapter: 1  ID: 0Read mode               : SecureUtilize accurate stream : YesDefeat audio cache      : YesMake use of C2 pointers : NoRead offset correction                      : 667Overread into Lead-In and Lead-Out          : NoFill up missing offset samples with silence : YesDelete leading and trailing silent blocks   : NoNull samples used in CRC calculations       : YesUsed interface                              : Native Win32 interface for Win NT & 2000Used output format              : User Defined EncoderSelected bitrate                : 1024 kBit/sQuality                         : HighAdd ID3 tag                     : NoCommand line compressor         : C:\Program Files (x86)\Exact Audio Copy\Flac\flac.exeAdditional command line options : -V -8 -T "Date=%year%" -T "Genre=%genre%" %source%TOC of the extracted CD     Track |   Start  |  Length  | Start sector | End sector    ---------------------------------------------------------        1  |  0:00.00 |  6:50.00 |         0    |    30749        2  |  6:50.00 |  4:20.00 |     30750    |    50249        3  | 11:10.00 |  5:10.00 |     50250    |    73499        4  | 16:20.00 |  4:21.00 |     73500    |    93074        5  | 20:41.00 |  3:53.00 |     93075    |   110549        6  | 24:34.00 |  4:01.00 |    110550    |   128624        7  | 28:35.00 |  5:16.00 |    128625    |   152324        8  | 33:51.00 |  4:03.00 |    152325    |   170549        9  | 37:54.00 |  3:43.00 |    170550    |   187274       10  | 41:37.00 |  4:47.00 |    187275    |   208799       11  | 46:24.00 |  2:18.00 |    208800    |   219149Range status and errorsSelected range     Filename C:\Users\jean-mini\Music\Erlend Krauser - Flight of the Phoenix.wav     Peak level 97.7 %     Extraction speed 6.9 X     Range quality 100.0 %     Test CRC FE2E636F     Copy CRC FE2E636F     Copy OKNo errors occurredAccurateRip summaryTrack  1  accurately ripped (confidence 7)  [214BDFC9]  (AR v2)Track  2  accurately ripped (confidence 7)  [41919250]  (AR v2)Track  3  accurately ripped (confidence 7)  [DECD7DD5]  (AR v2)Track  4  accurately ripped (confidence 7)  [3D656D2D]  (AR v2)Track  5  accurately ripped (confidence 7)  [5E403D2E]  (AR v2)Track  6  accurately ripped (confidence 7)  [326EE915]  (AR v2)Track  7  accurately ripped (confidence 6)  [9D0B8810]  (AR v2)Track  8  accurately ripped (confidence 6)  [C84AA189]  (AR v2)Track  9  accurately ripped (confidence 5)  [72C919AB]  (AR v2)Track 10  accurately ripped (confidence 6)  [321F7F03]  (AR v2)Track 11  accurately ripped (confidence 6)  [783641E0]  (AR v2)All tracks accurately rippedEnd of status report---- CUETools DB Plugin V2.1.6[CTDB TOCID: fo2WmV04FYQJ0Blb5f_GicAbWRc-] foundSubmit result: fo2WmV04FYQJ0Blb5f_GicAbWRc- has been confirmedTrack | CTDB Status  1   | (18/18) Accurately ripped  2   | (18/18) Accurately ripped  3   | (18/18) Accurately ripped  4   | (18/18) Accurately ripped  5   | (18/18) Accurately ripped  6   | (18/18) Accurately ripped  7   | (17/18) Accurately ripped  8   | (16/18) Accurately ripped  9   | (17/18) Accurately ripped 10   | (17/18) Accurately ripped 11   | ( 7/18) Accurately ripped, or (8/18) differs in 5914 samples @02:17:53-02:17:65If you are sure that your rip contains errors, you can use CUETools to repair it.
Доп. информация:

To download the content you need:
1. Download and install torrent client [for Windows] or for mobile system
2. Click on [Download]
Attention.
If the test YOU are NOT a ROBOT - does not work, then You are using an outdated browser.
Install the current browser and click on [Download]
Security: torrent client is allowed by Kaspersky.

[asmlocator.ru].t651410.torrent 
Torrent: Registered [ 2019-07-13 08:10 ] · E99C1383FCE8052CB60060A33742295AC6467BEE

Download .torrent

Download

20 KB

Status: checked
Completed: 0 times
Size: 247 MB
terms.php
[Profile] [PM]
Display posts:    
Reply to topic

Current time is: 21-Aug 10:32

All times are UTC ± 0



You cannot post new topics in this forum
You cannot reply to topics in this forum
You cannot edit your posts in this forum
You cannot delete your posts in this forum
You cannot vote in polls in this forum
You cannot attach files in this forum
You can download files in this forum