Евровидение 2019 Тель Авив. 12,14,16,18 мая / Eurovision Song Contest 2019. Tel Aviv. 12,14,16,18 may [2019, Pop, HDTV, Feed, 1080i]

Reply to topic
DL-List and Torrent activity
Size:  184.99 GB   |    Registered:  10 days   |    Completed:  0 times

Seeder not seen: Never

 
   
 
 
Author Message

star21 ®

Gender: Female

Longevity: 3 years 8 months

Posts: 552042

Location: Екатеринбург

Post 07-Jul-2019 15:50

[Quote]

Eurovision Song Contest. Tel Aviv 2019 Жанр: Pop
Продолжительность: 03:56:26+02:17:04+02:17:15+04:14:44
Место проведения: Tel Aviv, Israel
Язык комментариев: английский
Год выпуска: 2019
Автор записи: J silverОписание:
64‑й конкурс песни «Евровидение 2019», который прошёл в одном из крупнейших городов Израиля, в Тель-Авиве.Доп. информация:
Внимание! Данный формат видео, записан с колориметрией 4:2:2. (Кроме церемонии открытия, в ней 4:2:0)
В данную раздачу входят открытие конкурса Евровидение 2019, полностью два полуфинала, и финал.
Файлы можно скачивать как частями, так и полностью.Качество: HDTV (Feed)
Контейнер: TS
Видео кодек: H.264
Аудио кодек: MPEG 2 / Dolby E
Видео: H.264 | 1920 x 1080i | 36,0 mb/s | 25 fps interlaced
Аудио 1: MPEG 2 | 384 kb/s | 48 Khz | 2 channel
(Английский. Интершум)
Аудио 2: MPEG 2 | 384 kb/s | 48 Khz | 2 channel
Аудио 3: Dolby E | 2304 Kbps | 48 Khz | 2 channel (Закодировано в Dolby E)Сэмпл Евровидение 2019 | Все раздачи Евровидения 2019

Скриншоты

Церемония открытия (12 мая)

Первый полуфинал (14 мая)

Второй полуфинал (16 мая)

Треклист

Треклист. Первый полуфинал

1. Кипр. Тамта - "Replay"
2. Черногория. D-moll - "Heaven"
3. Финляндия. Darude feat. Sebastian Rejman - "Look Away"
4. Польша. Тулия - "Pali się"
5. Словения. Зала Краль и Гашпер Шантл - "Sebi"
6. Чехия. Lake Malawi - "Friend of a Friend"
7. Венгрия. Йоци Папаи - "Az én apám"
8. Беларусь. Зена - "Like It"
9. Сербия. Невена Божович - "Круна"
10. Бельгия. Элиот Вассамиллет - "Wake Up"
11. Грузия. Ото Немсадзе - "Sul tsin iare"
12. Австралия. Кейт Миллер-Хайдке - "Zero Gravity"
13. Исландия. Hatari - "Hatrið mun sigra"
14. Эстония. Виктор Крон - "Storm"
15. Португалия. Конан Осирис - "Telemóveis"
16. Греция. Катерина Дуска - "Better Love"
17. Сан-Марино. Серхат - "Say Na Na Na"

Треклист. Второй полуфинал

01. Армения. Srbuk - «Walking Out
02. Ирландия. Сара Мактернан - «22»
03. Молдавия. Анна Одобеску - «Stay»
04. Швейцария. Лука Хенни - «She Got Me»
05. Латвия. Carousel - «That Night»
06. Румыния. Эстер Пеони - «On a Sunday»
07. Дания. Leonora - «Love Is Forever»
08. Швеция. Джон Лундвик - «Too Late for Love»
09. Австрия. Pænda - «Limits»
10. Хорватия. Роко - «The Dream»
11. Мальта. Микела Паче - «Chameleon»
12. Литва. Юриюс - «Run with the Lions»
13. Россия. Сергей Лазарев - «Scream»
14. Албания. Йонида Маличи - «Ktheju tokës»
15. Норвегия. KEiiNO - «Spirit in the Sky»
16. Нидерланды. Дункан Лоуренс - «Arcade»
17. Северная Македония. Тамара Тодевска - «Proud»
18. Азербайджан. Чингиз - «Truth»

Треклист. Финал.

01. Мальта. Микела Паче - «Chameleon.»
02. Албания. Йонида Маличи - «Ktheju tokës»
03. Чехия. Lake Malawi - «Friend of a Friend»
04. Германия. S!sters - «Sister»
05. Россия. Сергей Лазарев - «Scream»
06. Дания. Leonora - «Love Is Forever»
07. Сан-Марино Серхат «Say Na Na Na (англ.)русск.»
08. Северная Македония. Тамара Тодевская - «Proud»
09. Швеция. Джон Лундвик - «Too Late for Love.»
10. Словения. Зала Краль и Гашпер Шантл - «Sebi»
11. Кипр. Тамта - «Replay»
12. Нидерланды. Дункан Лоуренс - «Arcade (англ.)русск.»
13. Греция. Катерина Дуска - «Better Love»
14. Израиль. Коби Марими - «Home»
15. Норвегия. KEiiNO - «Spirit in the Sky»
16. Великобритания. Майкл Райс - «Bigger Than Us»
17. Исландия. Hatari - «Hatrið mun sigra (англ.)русск.»
18. Эстония. Виктор Крон - «Storm»
19. Белоруссия. Зена - «Like It»
20. Азербайджан. Чингиз - «Truth (англ.)русск.»
21. Франция. Билаль Ассани - «Roi»
22. Италия. Мамуд - «Soldi»
23. Сербия. Невена Божович - «Круна»
24. Швейцария. Лука Хенни - «She Got Me»
25. Австралия. Кейт Миллер-Хайдке - «Zero Gravity»
26. Испания. Miki - «La venda»Мадонна - "Future" feat. Quavo / "Like a Prayer"
Кончита Вурст - "Heroes"
Монс Зелмерлев - "Fuego"
Элени Фурейра - "Dancing Lasha Tumbai"
Верка Сердючка - "Toy"
Гали Атари - "Hallelujah"
Нетта Барзилай - "Nana Banana"
Дана International - "Diva" / "Tel Aviv"
Надав Гедж - "Golden Boy"

Отчёт MediaInfo


Отчёт MediaInfo. Церемония открытия (4:2:0)

ормат : MPEG-TS
Размер файла : 34,1 Гбайт
Продолжительность : 3 ч. 56 м.
Режим общего битрейта : Переменный
Общий поток : 20,7 Мбит/секВидео
Идентификатор : 512 (0x200)
Идентификатор меню : 1 (0x1)
Формат : AVC
Формат/Информация : Advanced Video Codec
Профиль формата : Main@L4.0
Параметр CABAC формата : Да
Параметр ReFrames формата : 3 кадра
Идентификатор кодека : 27
Продолжительность : 3 ч. 56 м.
Вид битрейта : Постоянный
Битрейт : 19,8 Мбит/сек
Ширина : 1920 пикселей
Высота : 1080 пикселей
Соотношение сторон : 16:9
Частота кадров : 25,000 кадров/сек
Цветовое пространство : YUV
Субдискретизация насыщенности : 4:2:0
Битовая глубина : 8 бит
Тип развёртки : MBAFF
Бит/(Пиксели*Кадры) : 0.383
Размер потока : 32,0 Гбайт (94%)
Основные цвета : BT.709
Характеристики трансфера : BT.709
Коэффициенты матрицы : BT.709Аудио
Идентификатор : 4112 (0x1010)
Идентификатор меню : 1 (0x1)
Формат : MPEG Audio
Версия формата : Version 1
Профиль формата : Layer 2
Идентификатор кодека : 3
Продолжительность : 3 ч. 56 м.
Вид битрейта : Постоянный
Битрейт : 256 Кбит/сек
Каналы : 2 канала
Частота : 48,0 КГц
Метод сжатия : С потерями
Размер потока : 433 Мбайт (1%)
Язык : English

Отчёт MediaInfo. Первый полуфинал (4:2:2)

[pre]Формат : MPEG-TSРазмер файла : 39,2 ГбайтПродолжительность : 2 ч. 17 м.Режим общего битрейта : ПеременныйОбщий поток : 40,9 Мбит/секВидеоИдентификатор : 512 (0x200)Идентификатор меню : 1 (0x1)Формат : AVCФормат/Информация : Advanced Video CodecПрофиль формата : High 4:2:2@L4.0Параметр CABAC формата : НетПараметр ReFrames формата : 3 кадраИдентификатор кодека : 27Продолжительность : 2 ч. 17 м.Вид битрейта : ПеременныйБитрейт : 35,8 Мбит/секМаксимальный битрейт : 36,9 Мбит/секШирина : 1920 пикселейВысота : 1080 пикселейСоотношение сторон : 16:9Частота кадров : 25,000 кадров/секЦветовое пространство : YUVСубдискретизация насыщенности : 4:2:2Битовая глубина : 8 битТип развёртки : ЧересстрочнаяПорядок развёртки : Верхнее поле первоеБит/(Пиксели*Кадры) : 0.690Размер потока : 34,3 Гбайт (87%)Основные цвета : BT.709Характеристики трансфера : BT.709Коэффициенты матрицы : BT.709Аудио #1Идентификатор : 4112 (0x1010)Идентификатор меню : 1 (0x1)Формат : MPEG AudioВерсия формата : Version 1Профиль формата : Layer 2Режим : Dual monoИдентификатор кодека : 3Продолжительность : 2 ч. 17 м.Вид битрейта : ПостоянныйБитрейт : 384 Кбит/секКаналы : 2 каналаЧастота : 48,0 КГцМетод сжатия : С потерямиЗадержка видео : 4 мс.Размер потока : 376 Мбайт (1%)Аудио #2Идентификатор : 4128 (0x1020)Идентификатор меню : 1 (0x1)Формат : MPEG AudioВерсия формата : Version 1Профиль формата : Layer 2Режим : Dual monoИдентификатор кодека : 3Продолжительность : 2 ч. 17 м.Вид битрейта : ПостоянныйБитрейт : 384 Кбит/секКаналы : 2 каналаЧастота : 48,0 КГцМетод сжатия : С потерямиЗадержка видео : 4 мс.Размер потока : 376 Мбайт (1%)Аудио #3Идентификатор : 4144 (0x1030)Идентификатор меню : 1 (0x1)Формат : Dolby EРежим : 20Параметр Endianness формата : LittleРежим смешивания : AES3Идентификатор кодека : 6Продолжительность : 2 ч. 17 м.Вид битрейта : ПостоянныйБитрейт : 2304 Кбит/секБитовая глубина : 20 битЗадержка видео : 39 мс.Размер потока : 2,21 Гбайт (6%)

Отчёт MediaInfo. Второй полуфинал (4:2:2)

Формат                                   : MPEG-TSРазмер файла                             : 39,1 ГбайтПродолжительность                        : 2 ч. 17 м.Режим общего битрейта                    : ПеременныйОбщий поток                              : 40,8 Мбит/секВидеоИдентификатор                            : 512 (0x200)Идентификатор меню                       : 1 (0x1)Формат                                   : AVCФормат/Информация                        : Advanced Video CodecПрофиль формата                          : High 4:2:2@L4.0Параметр CABAC формата                   : НетПараметр ReFrames формата                : 3 кадраИдентификатор кодека                     : 27Продолжительность                        : 2 ч. 17 м.Вид битрейта                             : ПеременныйБитрейт                                  : 35,7 Мбит/секМаксимальный битрейт                     : 36,9 Мбит/секШирина                                   : 1920 пикселейВысота                                   : 1080 пикселейСоотношение сторон                       : 16:9Частота кадров                           : 25,000 кадров/секЦветовое пространство                    : YUVСубдискретизация насыщенности            : 4:2:2Битовая глубина                          : 8 битТип развёртки                            : ЧересстрочнаяПорядок развёртки                        : Верхнее поле первоеБит/(Пиксели*Кадры)                      : 0.688Размер потока                            : 34,2 Гбайт (87%)Основные цвета                           : BT.709Характеристики трансфера                 : BT.709Коэффициенты матрицы                     : BT.709Аудио #1Идентификатор                            : 4112 (0x1010)Идентификатор меню                       : 1 (0x1)Формат                                   : MPEG AudioВерсия формата                           : Version 1Профиль формата                          : Layer 2Режим                                    : Dual monoИдентификатор кодека                     : 3Продолжительность                        : 2 ч. 17 м.Вид битрейта                             : ПостоянныйБитрейт                                  : 384 Кбит/секКаналы                                   : 2 каналаЧастота                                  : 48,0 КГцМетод сжатия                             : С потерямиЗадержка видео                           : -440 мс.Размер потока                            : 377 Мбайт (1%)Аудио #2Идентификатор                            : 4128 (0x1020)Идентификатор меню                       : 1 (0x1)Формат                                   : MPEG AudioВерсия формата                           : Version 1Профиль формата                          : Layer 2Режим                                    : Dual monoИдентификатор кодека                     : 3Продолжительность                        : 2 ч. 17 м.Вид битрейта                             : ПостоянныйБитрейт                                  : 384 Кбит/секКаналы                                   : 2 каналаЧастота                                  : 48,0 КГцМетод сжатия                             : С потерямиЗадержка видео                           : -440 мс.Размер потока                            : 377 Мбайт (1%)Аудио #3Идентификатор                            : 4144 (0x1030)Идентификатор меню                       : 1 (0x1)Формат                                   : Dolby EРежим                                    : 20Параметр Endianness формата              : LittleРежим смешивания                         : AES3Идентификатор кодека                     : 6Продолжительность                        : 2 ч. 17 м.Вид битрейта                             : ПостоянныйБитрейт                                  : 2304 Кбит/секБитовая глубина                          : 20 битЗадержка видео                           : -428 мс.Размер потока                            : 2,21 Гбайт (6%)

Отчёт MediaInfo. Финал (4:2:2)

Формат                                   : MPEG-TSРазмер файла                             : 72,6 ГбайтПродолжительность                        : 4 ч. 14 м.Режим общего битрейта                    : ПеременныйОбщий поток                              : 40,8 Мбит/секВидеоИдентификатор                            : 512 (0x200)Идентификатор меню                       : 1 (0x1)Формат                                   : AVCФормат/Информация                        : Advanced Video CodecПрофиль формата                          : High 4:2:2@L4.0Параметр CABAC формата                   : НетПараметр ReFrames формата                : 3 кадраИдентификатор кодека                     : 27Продолжительность                        : 4 ч. 14 м.Вид битрейта                             : ПеременныйБитрейт                                  : 35,7 Мбит/секМаксимальный битрейт                     : 36,9 Мбит/секШирина                                   : 1920 пикселейВысота                                   : 1080 пикселейСоотношение сторон                       : 16:9Частота кадров                           : 25,000 кадров/секЦветовое пространство                    : YUVСубдискретизация насыщенности            : 4:2:2Битовая глубина                          : 8 битТип развёртки                            : ЧересстрочнаяПорядок развёртки                        : Верхнее поле первоеБит/(Пиксели*Кадры)                      : 0.689Размер потока                            : 63,5 Гбайт (87%)Основные цвета                           : BT.709Характеристики трансфера                 : BT.709Коэффициенты матрицы                     : BT.709Аудио #1Идентификатор                            : 4112 (0x1010)Идентификатор меню                       : 1 (0x1)Формат                                   : MPEG AudioВерсия формата                           : Version 1Профиль формата                          : Layer 2Режим                                    : Dual monoИдентификатор кодека                     : 3Продолжительность                        : 4 ч. 14 м.Вид битрейта                             : ПостоянныйБитрейт                                  : 384 Кбит/секКаналы                                   : 2 каналаЧастота                                  : 48,0 КГцМетод сжатия                             : С потерямиЗадержка видео                           : -552 мс.Размер потока                            : 700 Мбайт (1%)Аудио #2Идентификатор                            : 4128 (0x1020)Идентификатор меню                       : 1 (0x1)Формат                                   : MPEG AudioВерсия формата                           : Version 1Профиль формата                          : Layer 2Режим                                    : Dual monoИдентификатор кодека                     : 3Продолжительность                        : 4 ч. 14 м.Вид битрейта                             : ПостоянныйБитрейт                                  : 384 Кбит/секКаналы                                   : 2 каналаЧастота                                  : 48,0 КГцМетод сжатия                             : С потерямиЗадержка видео                           : -552 мс.Размер потока                            : 700 Мбайт (1%)Аудио #3Идентификатор                            : 4144 (0x1030)Идентификатор меню                       : 1 (0x1)Формат                                   : Dolby EРежим                                    : 20Параметр Endianness формата              : LittleРежим смешивания                         : AES3Идентификатор кодека                     : 6Продолжительность                        : 4 ч. 14 м.Вид битрейта                             : ПостоянныйБитрейт                                  : 2304 Кбит/секБитовая глубина                          : 20 битЗадержка видео                           : -549 мс.Размер потока                            : 4,10 Гбайт (6%)

To download the content you need:
1. Download and install torrent client [for Windows] or for mobile system
2. Click on [Download]
Attention.
If the test YOU are NOT a ROBOT - does not work, then You are using an outdated browser.
Install the current browser and click on [Download]
Security: torrent client is allowed by Kaspersky.

[asmlocator.ru].t649335.torrent 
Torrent: Registered [ 2019-07-07 15:50 ] · 6A524A7DFACD45B2FAA7C4E400ADF4186510FF93

Download .torrent

Download

926 KB

Status: checked
Completed: 0 times
Size: 184.99 GB
terms.php
[Profile] [PM]
Display posts:    
Reply to topic

Current time is: 18-Jul 05:45

All times are UTC ± 0



You cannot post new topics in this forum
You cannot reply to topics in this forum
You cannot edit your posts in this forum
You cannot delete your posts in this forum
You cannot vote in polls in this forum
You cannot attach files in this forum
You can download files in this forum