(Vocal, Romance) [CD] Георгий Виноградов - Романсы и песни - 2010 (6CD BOX), WavPack (image+.cue), lossless

Reply to topic
DL-List and Torrent activity
Size:  2.2 GB   |    Registered:  11 days   |    Completed:  0 times

Seeder not seen: Never

 
   
 
 
Author Message

star21 ®

Gender: Female

Longevity: 3 years 8 months

Posts: 552042

Location: Екатеринбург

Post 07-Jul-2019 00:05

[Quote]

Георгий Виноградов / Романсы и песни - 2010 (6CD BOX) Жанр: Vocal, Romance
Носитель: CD
Страна-производитель диска (релиза): Россия
Год издания: 2010
Издатель (лейбл): AQUARIUS
Номер по каталогу: AQVR 410-2
Страна исполнителя (группы): СССР
Аудиокодек: WavPack (*.wv)
Тип рипа: image+.cue
Продолжительность: более 7,5 часов
Источник: собственный рип издания из коллекции
Наличие сканов в содержимом раздачи: даТреклист:

cd1 - Романсы М.И. Глинки - 01:18:43

Нина Александрийская, меццо-сопрано (10, 11), Мария Шапошникова,
сопрано (15, 16), Андрей Иванов, баритон (19)
Год записи: 1943 (15, 16), 1946 (5, 6, 8, 9, 20), 1947 (1-4, 7, 14,
19, 21-26), 1948 (27), 1950 (10, 11, 28), 1951 (12, 13, 17, 18)01. Слышу ли голос твой * [0:01:21.23]
02. Не говори, что сердцу больно * [0:02:07.11]
03. Финский залив [0:02:49.19]
04. Один лишь миг [0:01:35.14]
05. Разочарование [0:02:41.60]
06. Что, красотка молодая [0:02:02.09]
07. Смертный час настал нежданно * [0:03:02.07]
08. Память сердца [0:03:19.65]
09. Дедушка [0:02:20.08]
10. Нина Александрийская, Георгий Виноградов / Воспоминание * [0:02:19.07]
11. Нина Александрийская, Георгий Виноградов / Прости меня, прости [0:03:12.45]
12. Только узнал я тебя [0:01:33.18]
13. Адель [0:02:26.11]
14. Я здесь, Инезилья! [0:01:38.14]
15. Мария Шапошникова, Георгий Виноградов / Элегия (Не искушай) [0:05:07.61]
16. Мария Шапошникова, Георгий Виноградов / Сомнение [0:05:36.10]
17. В крови горит огонь желанья [0:01:06.42]
18. Венецианская ночь [0:02:01.62]
19. Георгий Виноградов, Андрей Иванов / Вы не придёте вновь [0:03:07.07]
20. Бедный певец [0:03:01.08]
21. Желание [0:03:51.12]
22. Кто она и где она?* [0:02:10.07]
23. Болеро (О, дева чудная моя)* [0:01:46.10]
24. Давно ли роскошно ты розой цвела* [0:03:44.10]
25. Колыбельная песня* [0:04:20.07]
26. Рыцарский романс* [0:04:18.14]
27. Жаворонок* [0:02:53.08]
28. К Молли* [0:03:01.65]

cd2 - Русский романс - 01:18:17

Андрей Иванов, баритон (6, 7), Нина Александрийская, меццо-сопрано (8-
11)
Год записи: 1947 (1-12, 17-21, 27, 31, 32), 1950 (13-16, 22-26, 28-
30), 1951 (8-11), 1953 (33)01. Серенада (А. Гурилев)* [0:03:09.18]
02. Юноша и дева (А. Даргомыжский)* [0:01:12.17]
03. Я вас любил (А. Даргомыжский)* [0:02:04.08]
04. Что в имени тебе моём (А. Даргомыжский)* [0:02:20.08]
05. Ты хорошенькая (А. Даргомыжский)* [0:01:54.07]
06. Георгий Виноградов, Андрей Иванов / Ванька-Танька (А. Даргомыжский) [0:01:21.11]
07. Георгий Виноградов, Андрей Иванов / Моряки (К. Вильбоа) [0:03:40.61]
08. Нина Александрийская, Георгий Виноградов / Серенада (Ночь тиха, и луна) (А. Варламов)* [0:04:14.46]
09. Нина Александрийская, Георгий Виноградов / Ты не пой, соловей (А. Варламов)* [0:02:34.03]
10. Нина Александрийская, Георгий Виноградов / Серенада (Звёзды блещут) (А. Варламов)* [0:02:39.29]
11. Нина Александрийская, Георгий Виноградов / Рано, рано, цветик, ты (А. Варламов) * [0:04:36.07]
12. Запад гаснет в дали бледнорозовой (Н. Римский-Корсаков )* [0:02:51.10]
13. Люблю тебя, месяц (Н. Римский-Корсаков)* [0:02:08.08]
14. Красавица (Н. Римский-Корсаков) [0:02:42.07]
15. Певец (Н. Римский-Корсаков)* [0:01:51.07]
16. Ещё я полн, о друг мой милый (Н. Римский-Корсаков)* [0:01:28.07]
17. Редеет облаков летучая гряда (Н. Римский-Корсаков)* [0:03:24.07]
18. По-над Доном сад цветёт (М. Мусоргский)* [0:02:11.11]
19. Серенада (О, дитя!) (П. Чайковский)* [0:03:05.08]
20. Уж гасли в комнатах огни (П. Чайковский) [0:02:41.07]
21. Уноси мое сердце (П. Чайковский) [0:02:15.07]
22. Я умер от счастья (Н. Лодыженский)* [0:01:07.07]
23. Да, я вновь с тобой (Н. Лодыженский) [0:02:16.10]
24. Жила грузинка молодая (Н. Лодыженский) [0:01:59.08]
25. Призыв (Н. Лодыженский)* [0:01:04.08]
26. Денница (Н. Лодыженский)* [0:02:10.08]
27. Островок (С. Танеев)* [0:02:08.07]
28. Находка (С. Танеев)* [0:01:30.16]
29. Не мои ли страсти (С. Танеев) [0:01:26.07]
30. Последний разговор (С. Танеев) [0:03:29.10]
31. Сожжённое письмо (Ц. Кюи)* [0:02:38.15]
32. Колыбельная (А. Гречанинов)* [0:02:07.08]
33. Море и сердце (В. Соколов) [0:01:59.67]

cd3 - Песни Л. Бетховена, И. Брамса, Г. Вольфа, Э. Грига, Ж. Бизе, А. Дворжака, Ф. Шуберта, Р. Шумана - 01:19:19

Нина Александрийская, меццо-сопрано (16, 18, 19)
Год записи: 1945 (1), 1947 (5, 12-14, 24), 1950 (7-11, 17-19), 1951
(15, 16, 20- 23), 1953 (3, 4)01. К далёкой возлюбленной (Л. Бетховен, op. 98)* [0:12:04.04]
02. У милой губы - маков цвет (И. Брамс, из цикла «49 немецких народных песен», WoO 33, n. 25)* [0:01:52.19]
03. Одиночество (Г. Вольф , из цикла «Песни на стихи Мёрике», n. 12)* [0:02:37.18]
04. Садовник (Г. Вольф, из цикла «Песни на стихи Мёрике», n. 17)* [0:01:30.11]
05. Весна (Э. Григ, из цикла «12 мелодий на стихи Винье», op. 33, n. 2)* [0:06:49.19]
06. Божья коровка (Ж. Бизе, op. 21, n. 16)* [0:04:37.08]
07. Лес недвижим (А. Дворжак, из цикла «Цыганские мелодии», op. 55, n. 3)* [0:02:27.06]
08. Сокол (А. Дворжак, из цикла «Цыганские мелодии», op. 55, n. 7)* [0:01:34.38]
09. Нам не дано судьбой любить (А. Дворжак, из цикла «Песни любви», op. 83, n. 1)* [0:02:24.08]
10. Близ дома часто я брожу (А. Дворжак, из цикла «Песни любви», op. 83, n. 3)* [0:01:18.52]
11. От дивных чар твоих очей (А. Дворжак, из цикла «Песни любви», op. 83, n. 7)* [0:01:52.20]
12. Вечерняя серенада (Ф. Шуберт, из цикла «Лебединая песня», D. 957, n. 4)* [0:04:59.09]
13. У моря (Ф. Шуберт, из цикла «Лебединая песня», D. 957, n. 12) * [0:04:19.07]
14. Созвездие (Ф. Шуберт, D. 444)* [0:03:41.36]
15. Сын муз (Ф. Шуберт, op. 92, n. 1, D. 764)* [0:02:40.07]
16. Георгий Виноградов, Нина Александрийская / Дуэт Миньоны и Арфиста (Ф. Шуберт, op. 62, n. 1, D. 877)* [0:03:46.08]
17. Трагедия (Р. Шуман, op. 64, n. 3)* a)Будь мне женой [0:01:25.68]
18. Георгий Виноградов, Нина Александрийская / b) Весною раннею иней пал [0:02:01.26]
19. Георгий Виноградов, Нина Александрийская / c) Над их могилой липа густая [0:02:05.04]
20. Осенняя песнь (Р. Шуман, op. 89, n. 3)* [0:02:30.20]
21. Моя роза (Р. Шуман, op. 90, n. 2) [0:02:56.54]
22. Ясных дней моих могила (Р. Шуман, op. 24, n. 5)* [0:03:07.17]
23. Венок из мирта и роз (Р. Шуман, op. 24, n. 9) [0:03:57.27]
24. Орешник (Р. Шуман, из цикла «Мирты», op. 25, n. 3) [0:02:43.39]

cd4 - Романсы XX века - 01:13:34

Год записи: 1938 (29, 30), 1941 (15-19, 31, 32), 1946 (1-5, 14, 20,
25, 26), 1947 (6, 7, 9-13, 21, 27, 28, 33), 1949 (8, 23), 1950 (22,
24)01. Глядел я, стоя над Невой [0:03:15.06]
02. Неохотно и несмело [0:02:54.12]
03. Что ты клонишь над водами [0:01:10.09]
04. Слёзы людские [0:01:35.11]
05. Опять стою я над Невой* [0:02:18.12]
06. На берегу, где дремлет лес священный [0:01:58.21]
07. Красавица перед зеркалом* [0:01:21.09]
08. Погребок [0:02:27.11]
09. Счастлив, кто близ тебя* [0:01:39.08]
10. Мери* [0:01:40.07]
11. Последние цветы* [0:01:56.07]
12. Таврида* [0:03:15.07]
13. Играй, Адель* [0:00:57.10]
14. Как небеса твой взор блистает* [0:03:22.09]
15. Я помню вечер (n. 1)* [0:02:01.16]
16. За горами, лесами (n. 5)* [0:02:50.24]
17. Твой южный голос томен (n. 7)* [0:02:32.09]
18. Когда-то долгие печали (n. 8)* [0:02:19.09]
19. Та жизнь прошла (n. 10)* [0:02:44.22]
20. Среди миров (Ю. Шапорин) [0:02:30.07]
21. Элегия (Приближается звук) (Ю. Шапорин)* [0:02:31.08]
22. Рассвет (К. Йирак)* [0:02:56.20]
23. Зимняя дорога (Т. Хренников) [0:02:13.10]
24. Моя душа (Любовь к общественному благу)* (М. Грачёв) [0:01:30.36]
25. Чаша (А. Поздняков) [0:01:28.18]
26. Прощай (А. Поздняков)* [0:01:44.32]
27. Письмо (А. Поздняков)* [0:02:03.17]
28. Колыбельная (З. Компанеец)* [0:03:29.07]
29. Ожидание (З. Компанеец) [0:02:11.08]
30. Доброе утро (К. Листов) [0:02:40.12]
31. Её глаза (А. Титов) [0:02:26.07]
32. На Волго-канале (В. Мурадели) [0:01:41.09]
33. Вакхическая песня (А. Гольденвейзер) [0:01:54.63]

cd5 - Народные и советские песни - 01:05:17

Иван Паторжинский, бас (13), Иван Скобцов, бас (23)
Год записи: 1943 (13, 19), 1944 (4), 1946 (14), 1947 (9-12, 15, 22,
25, 26), 1948 (1-3, 6, 20, 23, 24), 1950 (7, 8, 16-18), 1953 (5, 21)01. Былина про Добрыню Никитича (обр. М. Стаховича) * [0:02:55.03]
02. Уж и кто ж у нас больший-набольший * (русская народная песня, обр. А. Иванова-Крамского) [0:01:57.08]
03. Ой, Иван-то ты, Иван * (русская народная песня, обр. М. Стаховича) [0:01:32.08]
04. На горе, на крутой (русская народная песня) [0:03:03.59]
05. Запрягу я тройку борзых (русская народная песня, обр. А. Иванова-Крамского) [0:01:18.09]
06. Во поле береза стояла (русская народная песня) * [0:01:17.63]
07. Ты заря-ль моя (русская народная песня, обр. А. Тонина) * [0:03:04.07]
08. Я на камушке сижу (русская народная песня, обр. П. Алексеева) * [0:02:01.66]
09. Сизый голубь (русская народная песня, обр. А. Семенова) * [0:04:23.14]
10. Как по лужку травка (русская народная песня, обр. М. Коваля) * [0:02:22.07]
11. Далеко, далеко степь за Волгу ушла (русская народная песня, обр. Н. Речменского) [0:06:09.07]
12. Песня разбойника (М. Балакирев) * [0:02:28.09]
13. Ой, у лузi *, дуэт (украинская народная песня, обр. А. Александрова) [0:04:45.11]
14. Под окном (сербская народная песня) [0:03:00.07]
15. Возле речки на лужочке (русская народная песня) [0:02:01.65]
16. Ах ты, зимушка-зима (русская народная песня) [0:02:32.30]
17. Не две тученьки (Ю. Шапорин, из к/ф «Суворов») [0:02:47.04]
18. Батюшка Суворов (Ю. Шапорин, из к/ф «Суворов») [0:01:44.12]
19. По улице мостовой (русская народная песня) * [0:02:57.11]
20. Балалайка (С. Кац) * [0:03:11.56]
21. Догорел золотой закат (Ю. Слонов) [0:02:56.09]
22. Золотые огоньки (В. Соловьев-Седой, из к/ф «Голубые дороги») [0:02:44.12]
23. Спой, товарищ (З. Компанеец) * [0:04:13.12]
24. Казачонок (Мне исполнилось тринадцать) (М. Блантер) [0:02:56.20]
25. В городском саду (М. Блантер) [0:03:24.67]
26. Мандолина (А. Поздняков) * [0:03:50.66]

cd6 - Кот в сапогах» (опера-сказка) - 00:54:50

Кот Павел Понтрягин (пение) Николай Литвинов (текст) Жан, младший сын мельника, он же Маркиз Карабас Георгий Виноградов Средний сын мельника Алексей Усманов Старший сын мельника Даниил Демьянов Король Георгий Абрамов Принцесса, дочь короля Зоя Муратова Людоед Константин Поляев Придворные, жнецы, косари, слуги людоеда Хор и оркестр Всесоюзного радиокомитета. Дирижёр - Леонид Пятигорский Запись 1948 года01. Вступление [0:02:45.22]
02. Текст [0:02:27.00]
03. Трио (Жан, старший и средний сыновья мельника) [0:02:32.68]
04. Ария Жана [0:02:05.74]
05. Текст [0:00:13.57]
06. Сцена Жана и кота [0:02:03.64]
07. Текст [0:01:03.10]
08. Хор придворных [0:00:53.59]
09. Сцена (король, придворные, принцесса) [0:01:05.27]
10. Песенка принцессы [0:02:01.04]
11. Сцена (король, придворный) [0:00:46.14]
12. Текст [0:00:12.49]
13. Сцена (кот, король, придворные) [0:03:19.17]
14. Кадриль [0:01:51.72]
15. Текст [0:00:26.61]
16. Сцена (кот) [0:02:36.27]
17. Текст [0:00:12.73]
18. Сцена (жнецы и косари, кот) [0:02:02.36]
19. Текст [0:00:51.26]
20. Сцена (кот, король, жнецы и косари, принцесса, Жан) [0:06:12.63]
21. Текст [0:00:14.60]
22. Сцена (людоед, кот, слуги людоеда) [0:07:25.16]
23. Сцена (король, Жан, принцесса) [0:00:56.05]
24. Дуэт Жана и принцессы [0:01:45.29]
25. Финал (кот, король, слуги людоеда и придворные) [0:02:21.45]
26. Песни Иванушки (Л. Половинкин) [0:04:25.26]
27. Ария Ивана о Москве (М. Красев «Несмеяна-царевна») * [0:01:57.50]

Логи создания рипов


Лог создания рипа cd1

Exact Audio Copy V1.3 from 2. September 2016EAC extraction logfile from 6. July 2019, 9:53Георгий Виноградов / cd1 - Романсы М.И. ГлинкиUsed drive : PLEXTOR DVDR PX-L890SA Adapter: 1 ID: 0Read mode : Secure
Utilize accurate stream : Yes
Defeat audio cache : Yes
Make use of C2 pointers : NoRead offset correction : 6
Overread into Lead-In and Lead-Out : No
Fill up missing offset samples with silence : Yes
Delete leading and trailing silent blocks : No
Null samples used in CRC calculations : Yes
Used interface : Native Win32 interface for Win NT & 2000Used output format : User Defined Encoder
Selected bitrate : 1024 kBit/s
Quality : High
Add ID3 tag : No
Command line compressor : C:\Program Files (x86)\Exact Audio Copy\wavpack.exe
Additional command line options : -lm %source%TOC of the extracted CD Track | Start | Length | Start sector | End sector
---------------------------------------------------------
1 | 0:00.00 | 1:21.23 | 0 | 6097
2 | 1:21.23 | 2:07.11 | 6098 | 15633
3 | 3:28.34 | 2:49.19 | 15634 | 28327
4 | 6:17.53 | 1:35.14 | 28328 | 35466
5 | 7:52.67 | 2:41.60 | 35467 | 47601
6 | 10:34.52 | 2:02.09 | 47602 | 56760
7 | 12:36.61 | 3:02.07 | 56761 | 70417
8 | 15:38.68 | 3:19.65 | 70418 | 85407
9 | 18:58.58 | 2:20.08 | 85408 | 95915
10 | 21:18.66 | 2:19.07 | 95916 | 106347
11 | 23:37.73 | 3:12.45 | 106348 | 120792
12 | 26:50.43 | 1:33.18 | 120793 | 127785
13 | 28:23.61 | 2:26.11 | 127786 | 138746
14 | 30:49.72 | 1:38.14 | 138747 | 146110
15 | 32:28.11 | 5:07.61 | 146111 | 169196
16 | 37:35.72 | 5:36.10 | 169197 | 194406
17 | 43:12.07 | 1:06.42 | 194407 | 199398
18 | 44:18.49 | 2:01.62 | 199399 | 208535
19 | 46:20.36 | 3:07.07 | 208536 | 222567
20 | 49:27.43 | 3:01.08 | 222568 | 236150
21 | 52:28.51 | 3:51.12 | 236151 | 253487
22 | 56:19.63 | 2:10.07 | 253488 | 263244
23 | 58:29.70 | 1:46.10 | 263245 | 271204
24 | 60:16.05 | 3:44.10 | 271205 | 288014
25 | 64:00.15 | 4:20.07 | 288015 | 307521
26 | 68:20.22 | 4:18.14 | 307522 | 326885
27 | 72:38.36 | 2:53.08 | 326886 | 339868
28 | 75:31.44 | 3:01.65 | 339869 | 353508Range status and errorsSelected range Filename D:\wwphil\Георгий Виноградов - Романсы и песни (6CD Box, 2010)\cd1 - Романсы М.И. Глинки\Георгий Виноградов - cd1 - Романсы М.И. Глинки.wav Peak level 99.0 %
Extraction speed 10.2 X
Range quality 100.0 %
Test CRC 80F0AB4A
Copy CRC 80F0AB4A
Copy OKNo errors occurredAccurateRip summaryTrack 1 accurately ripped (confidence 1) [9AC2C088] (AR v2)
Track 2 accurately ripped (confidence 1) [345D5317] (AR v2)
Track 3 accurately ripped (confidence 1) [BB2360C0] (AR v2)
Track 4 accurately ripped (confidence 1) [35A27091] (AR v2)
Track 5 accurately ripped (confidence 1) [B4908DB6] (AR v2)
Track 6 accurately ripped (confidence 1) [36136300] (AR v2)
Track 7 accurately ripped (confidence 1) [162CB2AD] (AR v2)
Track 8 accurately ripped (confidence 1) [30E7B5E6] (AR v2)
Track 9 accurately ripped (confidence 1) [5B6DB4D2] (AR v2)
Track 10 accurately ripped (confidence 1) [295E54BB] (AR v2)
Track 11 accurately ripped (confidence 1) [4D38678C] (AR v2)
Track 12 accurately ripped (confidence 1) [751130D3] (AR v2)
Track 13 accurately ripped (confidence 1) [AADD0033] (AR v2)
Track 14 accurately ripped (confidence 1) [C55E8E69] (AR v2)
Track 15 accurately ripped (confidence 1) [163184B6] (AR v2)
Track 16 accurately ripped (confidence 1) [1B1C622C] (AR v2)
Track 17 accurately ripped (confidence 1) [85CE3230] (AR v2)
Track 18 accurately ripped (confidence 1) [3F9C6266] (AR v2)
Track 19 accurately ripped (confidence 1) [A531D5B7] (AR v2)
Track 20 accurately ripped (confidence 1) [99771788] (AR v2)
Track 21 accurately ripped (confidence 1) [F6823B52] (AR v2)
Track 22 accurately ripped (confidence 1) [E25E4240] (AR v2)
Track 23 accurately ripped (confidence 1) [F80E3574] (AR v2)
Track 24 accurately ripped (confidence 1) [0E63CC81] (AR v2)
Track 25 accurately ripped (confidence 1) [144FEBF9] (AR v2)
Track 26 accurately ripped (confidence 1) [6B8DF061] (AR v2)
Track 27 accurately ripped (confidence 1) [76AB73DA] (AR v2)
Track 28 accurately ripped (confidence 1) [877D9D1D] (AR v2)All tracks accurately rippedEnd of status report==== Log checksum 3E4CDC0C59597D51F358CB88FFD0CB3F701150B8F9B2E3DACF56844B56476355 ====

Лог создания рипа cd2

[pre]Exact Audio Copy V1.3 from 2. September 2016EAC extraction logfile from 6. July 2019, 10:22Георгий Виноградов / св2 - Русский романсUsed drive : PLEXTOR DVDR PX-L890SA Adapter: 1 ID: 0Read mode : SecureUtilize accurate stream : YesDefeat audio cache : YesMake use of C2 pointers : NoRead offset correction : 6Overread into Lead-In and Lead-Out : NoFill up missing offset samples with silence : YesDelete leading and trailing silent blocks : NoNull samples used in CRC calculations : YesUsed interface : Native Win32 interface for Win NT & 2000Used output format : User Defined EncoderSelected bitrate : 1024 kBit/sQuality : HighAdd ID3 tag : NoCommand line compressor : C:\Program Files (x86)\Exact Audio Copy\wavpack.exeAdditional command line options : -lm %source%TOC of the extracted CD Track | Start | Length | Start sector | End sector --------------------------------------------------------- 1 | 0:00.00 | 3:09.18 | 0 | 14192 2 | 3:09.18 | 1:12.17 | 14193 | 19609 3 | 4:21.35 | 2:04.08 | 19610 | 28917 4 | 6:25.43 | 2:20.08 | 28918 | 39425 5 | 8:45.51 | 1:54.07 | 39426 | 47982 6 | 10:39.58 | 1:21.11 | 47983 | 54068 7 | 12:00.69 | 3:40.61 | 54069 | 70629 8 | 15:41.55 | 4:14.46 | 70630 | 89725 9 | 19:56.26 | 2:34.03 | 89726 | 101278 10 | 22:30.29 | 2:39.29 | 101279 | 113232 11 | 25:09.58 | 4:36.07 | 113233 | 133939 12 | 29:45.65 | 2:51.10 | 133940 | 146774 13 | 32:37.00 | 2:08.08 | 146775 | 156382 14 | 34:45.08 | 2:42.07 | 156383 | 168539 15 | 37:27.15 | 1:51.07 | 168540 | 176871 16 | 39:18.22 | 1:28.07 | 176872 | 183478 17 | 40:46.29 | 3:24.07 | 183479 | 198785 18 | 44:10.36 | 2:11.11 | 198786 | 208621 19 | 46:21.47 | 3:05.08 | 208622 | 222504 20 | 49:26.55 | 2:41.07 | 222505 | 234586 21 | 52:07.62 | 2:15.07 | 234587 | 244718 22 | 54:22.69 | 1:07.07 | 244719 | 249750 23 | 55:30.01 | 2:16.10 | 249751 | 259960 24 | 57:46.11 | 1:59.08 | 259961 | 268893 25 | 59:45.19 | 1:04.08 | 268894 | 273701 26 | 60:49.27 | 2:10.08 | 273702 | 283459 27 | 62:59.35 | 2:08.07 | 283460 | 293066 28 | 65:07.42 | 1:30.16 | 293067 | 299832 29 | 66:37.58 | 1:26.07 | 299833 | 306289 30 | 68:03.65 | 3:29.10 | 306290 | 321974 31 | 71:33.00 | 2:38.15 | 321975 | 333839 32 | 74:11.15 | 2:07.08 | 333840 | 343372 33 | 76:18.23 | 1:59.67 | 343373 | 352364Range status and errorsSelected range Filename D:\wwphil\Георгий Виноградов - Романсы и песни (6CD Box, 2010)\cd2 - Русский романс\Георгий Виноградов - св2 - Русский романс.wav Peak level 85.7 % Extraction speed 10.2 X Range quality 100.0 % Test CRC 1D17CEC9 Copy CRC 1D17CEC9 Copy OKNo errors occurredAccurateRip summaryTrack 1 not present in databaseTrack 2 not present in databaseTrack 3 not present in databaseTrack 4 not present in databaseTrack 5 not present in databaseTrack 6 not present in databaseTrack 7 not present in databaseTrack 8 not present in databaseTrack 9 not present in databaseTrack 10 not present in databaseTrack 11 not present in databaseTrack 12 not present in databaseTrack 13 not present in databaseTrack 14 not present in databaseTrack 15 not present in databaseTrack 16 not present in databaseTrack 17 not present in databaseTrack 18 not present in databaseTrack 19 not present in databaseTrack 20 not present in databaseTrack 21 not present in databaseTrack 22 not present in databaseTrack 23 not present in databaseTrack 24 not present in databaseTrack 25 not present in databaseTrack 26 not present in databaseTrack 27 not present in databaseTrack 28 not present in databaseTrack 29 not present in databaseTrack 30 not present in databaseTrack 31 not present in databaseTrack 32 not present in databaseTrack 33 not present in databaseNone of the tracks are present in the AccurateRip databaseEnd of status report==== Log checksum 1BFAA17445A2094E1E1CE881B72B00D22222423E46BD9E15FBCBA9679C9AE7C0 ====

Лог создания рипа cd3

Exact Audio Copy V1.3 from 2. September 2016EAC extraction logfile from 6. July 2019, 9:23Георгий Виноградов / cd3 - Песни Л. Бетховена, И. Брамса, Г. Вольфа, Э. Грига, Ж. Бизе, А. Дворжака, Ф. Шуберта, Р. ШуманаUsed drive  : PLEXTOR DVDR   PX-L890SA   Adapter: 1  ID: 0Read mode               : SecureUtilize accurate stream : YesDefeat audio cache      : YesMake use of C2 pointers : NoRead offset correction                      : 6Overread into Lead-In and Lead-Out          : NoFill up missing offset samples with silence : YesDelete leading and trailing silent blocks   : NoNull samples used in CRC calculations       : YesUsed interface                              : Native Win32 interface for Win NT & 2000Used output format              : User Defined EncoderSelected bitrate                : 1024 kBit/sQuality                         : HighAdd ID3 tag                     : NoCommand line compressor         : C:\Program Files (x86)\Exact Audio Copy\wavpack.exeAdditional command line options : -lm %source%TOC of the extracted CD     Track |   Start  |  Length  | Start sector | End sector    ---------------------------------------------------------        1  |  0:00.00 | 12:04.04 |         0    |    54303        2  | 12:04.04 |  1:52.19 |     54304    |    62722        3  | 13:56.23 |  2:37.18 |     62723    |    74515        4  | 16:33.41 |  1:30.11 |     74516    |    81276        5  | 18:03.52 |  6:49.19 |     81277    |   111970        6  | 24:52.71 |  4:37.08 |    111971    |   132753        7  | 29:30.04 |  2:27.06 |    132754    |   143784        8  | 31:57.10 |  1:34.38 |    143785    |   150872        9  | 33:31.48 |  2:24.08 |    150873    |   161680       10  | 35:55.56 |  1:18.52 |    161681    |   167582       11  | 37:14.33 |  1:52.20 |    167583    |   176002       12  | 39:06.53 |  4:59.09 |    176003    |   198436       13  | 44:05.62 |  4:19.07 |    198437    |   217868       14  | 48:24.69 |  3:41.36 |    217869    |   234479       15  | 52:06.30 |  2:40.07 |    234480    |   246486       16  | 54:46.37 |  3:46.08 |    246487    |   263444       17  | 58:32.45 |  1:25.68 |    263445    |   269887       18  | 59:58.38 |  2:01.26 |    269888    |   278988       19  | 61:59.64 |  2:05.04 |    278989    |   288367       20  | 64:04.68 |  2:30.20 |    288368    |   299637       21  | 66:35.13 |  2:56.54 |    299638    |   312891       22  | 69:31.67 |  3:07.17 |    312892    |   326933       23  | 72:39.09 |  3:57.27 |    326934    |   344735       24  | 76:36.36 |  2:43.39 |    344736    |   356999Range status and errorsSelected range     Filename D:\wwphil\-(6CDB~1\CD3-__~1\Георгий Виноградов - cd3 - Песни Л. Бетховена, И. Брамса, Г. Вольфа, Э. Грига, Ж. Бизе, А. Дворжака, Ф. Шуберта, Р. Шумана.wav     Peak level 94.1 %     Extraction speed 10.2 X     Range quality 100.0 %     Test CRC A336ABF8     Copy CRC A336ABF8     Copy OKNo errors occurredAccurateRip summaryTrack  1  not present in databaseTrack  2  not present in databaseTrack  3  not present in databaseTrack  4  not present in databaseTrack  5  not present in databaseTrack  6  not present in databaseTrack  7  not present in databaseTrack  8  not present in databaseTrack  9  not present in databaseTrack 10  not present in databaseTrack 11  not present in databaseTrack 12  not present in databaseTrack 13  not present in databaseTrack 14  not present in databaseTrack 15  not present in databaseTrack 16  not present in databaseTrack 17  not present in databaseTrack 18  not present in databaseTrack 19  not present in databaseTrack 20  not present in databaseTrack 21  not present in databaseTrack 22  not present in databaseTrack 23  not present in databaseTrack 24  not present in databaseNone of the tracks are present in the AccurateRip databaseEnd of status report==== Log checksum 3DF23DE0252B3B688CF2B4D781DD51F38DBAE36DA31C2D9FE67B4956ACDA1ED9 ====

Лог создания рипа cd4

Exact Audio Copy V1.3 from 2. September 2016EAC extraction logfile from 6. July 2019, 11:19Георгий Виноградов / cd4 - Романсы XX векаUsed drive  : PLEXTOR DVDR   PX-L890SA   Adapter: 1  ID: 0Read mode               : SecureUtilize accurate stream : YesDefeat audio cache      : YesMake use of C2 pointers : NoRead offset correction                      : 6Overread into Lead-In and Lead-Out          : NoFill up missing offset samples with silence : YesDelete leading and trailing silent blocks   : NoNull samples used in CRC calculations       : YesUsed interface                              : Native Win32 interface for Win NT & 2000Used output format              : User Defined EncoderSelected bitrate                : 1024 kBit/sQuality                         : HighAdd ID3 tag                     : NoCommand line compressor         : C:\Program Files (x86)\Exact Audio Copy\wavpack.exeAdditional command line options : -lm %source%TOC of the extracted CD     Track |   Start  |  Length  | Start sector | End sector    ---------------------------------------------------------        1  |  0:00.00 |  3:15.06 |         0    |    14630        2  |  3:15.06 |  2:54.12 |     14631    |    27692        3  |  6:09.18 |  1:10.09 |     27693    |    32951        4  |  7:19.27 |  1:35.11 |     32952    |    40087        5  |  8:54.38 |  2:18.12 |     40088    |    50449        6  | 11:12.50 |  1:58.21 |     50450    |    59320        7  | 13:10.71 |  1:21.09 |     59321    |    65404        8  | 14:32.05 |  2:27.11 |     65405    |    76440        9  | 16:59.16 |  1:39.08 |     76441    |    83873       10  | 18:38.24 |  1:40.07 |     83874    |    91380       11  | 20:18.31 |  1:56.07 |     91381    |   100087       12  | 22:14.38 |  3:15.07 |    100088    |   114719       13  | 25:29.45 |  0:57.10 |    114720    |   119004       14  | 26:26.55 |  3:22.09 |    119005    |   134163       15  | 29:48.64 |  2:01.16 |    134164    |   143254       16  | 31:50.05 |  2:50.24 |    143255    |   156028       17  | 34:40.29 |  2:32.09 |    156029    |   167437       18  | 37:12.38 |  2:19.09 |    167438    |   177871       19  | 39:31.47 |  2:44.22 |    177872    |   190193       20  | 42:15.69 |  2:30.07 |    190194    |   201450       21  | 44:46.01 |  2:31.08 |    201451    |   212783       22  | 47:17.09 |  2:56.20 |    212784    |   226003       23  | 50:13.29 |  2:13.10 |    226004    |   235988       24  | 52:26.39 |  1:30.36 |    235989    |   242774       25  | 53:57.00 |  1:28.18 |    242775    |   249392       26  | 55:25.18 |  1:44.32 |    249393    |   257224       27  | 57:09.50 |  2:03.17 |    257225    |   266466       28  | 59:12.67 |  3:29.07 |    266467    |   282148       29  | 62:41.74 |  2:11.08 |    282149    |   291981       30  | 64:53.07 |  2:40.12 |    291982    |   303993       31  | 67:33.19 |  2:26.07 |    303994    |   314950       32  | 69:59.26 |  1:41.09 |    314951    |   322534       33  | 71:40.35 |  1:54.63 |    322535    |   331147Range status and errorsSelected range     Filename D:\wwphil\Георгий Виноградов -  Романсы и песни (6CD Box, 2010)\cd4 - Романсы XX века\Георгий Виноградов - cd4 - Романсы XX века.wav     Peak level 91.6 %     Extraction speed 10.0 X     Range quality 99.9 %     Test CRC CFA647B3     Copy CRC CFA647B3     Copy OKNo errors occurredAccurateRip summaryTrack  1  not present in databaseTrack  2  not present in databaseTrack  3  not present in databaseTrack  4  not present in databaseTrack  5  not present in databaseTrack  6  not present in databaseTrack  7  not present in databaseTrack  8  not present in databaseTrack  9  not present in databaseTrack 10  not present in databaseTrack 11  not present in databaseTrack 12  not present in databaseTrack 13  not present in databaseTrack 14  not present in databaseTrack 15  not present in databaseTrack 16  not present in databaseTrack 17  not present in databaseTrack 18  not present in databaseTrack 19  not present in databaseTrack 20  not present in databaseTrack 21  not present in databaseTrack 22  not present in databaseTrack 23  not present in databaseTrack 24  not present in databaseTrack 25  not present in databaseTrack 26  not present in databaseTrack 27  not present in databaseTrack 28  not present in databaseTrack 29  not present in databaseTrack 30  not present in databaseTrack 31  not present in databaseTrack 32  not present in databaseTrack 33  not present in databaseNone of the tracks are present in the AccurateRip databaseEnd of status report==== Log checksum B157407D925C7C34A836939D2CA269E06855FBB467B5258C6F3A12854C67322B ====

Лог создания рипа cd5

Exact Audio Copy V1.3 from 2. September 2016EAC extraction logfile from 6. July 2019, 11:58Георгий Виноградов / cd5 - Народные и советские песниUsed drive  : PLEXTOR DVDR   PX-L890SA   Adapter: 1  ID: 0Read mode               : SecureUtilize accurate stream : YesDefeat audio cache      : YesMake use of C2 pointers : NoRead offset correction                      : 6Overread into Lead-In and Lead-Out          : NoFill up missing offset samples with silence : YesDelete leading and trailing silent blocks   : NoNull samples used in CRC calculations       : YesUsed interface                              : Native Win32 interface for Win NT & 2000Used output format              : User Defined EncoderSelected bitrate                : 1024 kBit/sQuality                         : HighAdd ID3 tag                     : NoCommand line compressor         : C:\Program Files (x86)\Exact Audio Copy\wavpack.exeAdditional command line options : -lm %source%TOC of the extracted CD     Track |   Start  |  Length  | Start sector | End sector    ---------------------------------------------------------        1  |  0:00.00 |  2:55.03 |         0    |    13127        2  |  2:55.03 |  1:57.08 |     13128    |    21910        3  |  4:52.11 |  1:32.08 |     21911    |    28818        4  |  6:24.19 |  3:03.59 |     28819    |    42602        5  |  9:28.03 |  1:18.09 |     42603    |    48461        6  | 10:46.12 |  1:17.63 |     48462    |    54299        7  | 12:04.00 |  3:04.07 |     54300    |    68106        8  | 15:08.07 |  2:01.66 |     68107    |    77247        9  | 17:09.73 |  4:23.14 |     77248    |    96986       10  | 21:33.12 |  2:22.07 |     96987    |   107643       11  | 23:55.19 |  6:09.07 |    107644    |   135325       12  | 30:04.26 |  2:28.09 |    135326    |   146434       13  | 32:32.35 |  4:45.11 |    146435    |   167820       14  | 37:17.46 |  3:00.07 |    167821    |   181327       15  | 40:17.53 |  2:01.65 |    181328    |   190467       16  | 42:19.43 |  2:32.30 |    190468    |   201897       17  | 44:51.73 |  2:47.04 |    201898    |   214426       18  | 47:39.02 |  1:44.12 |    214427    |   222238       19  | 49:23.14 |  2:57.11 |    222239    |   235524       20  | 52:20.25 |  3:11.56 |    235525    |   249905       21  | 55:32.06 |  2:56.09 |    249906    |   263114       22  | 58:28.15 |  2:44.12 |    263115    |   275426       23  | 61:12.27 |  4:13.12 |    275427    |   294413       24  | 65:25.39 |  2:56.20 |    294414    |   307633       25  | 68:21.59 |  3:24.67 |    307634    |   323000       26  | 71:46.51 |  3:50.66 |    323001    |   340316Range status and errorsSelected range     Filename D:\wwphil\Георгий Виноградов -  Романсы и песни (6CD Box, 2010)\cd5 - Народные и советские песни\Георгий Виноградов - cd5 - Народные и советские песни.wav     Peak level 97.6 %     Extraction speed 10.1 X     Range quality 100.0 %     Test CRC F06EA7D9     Copy CRC F06EA7D9     Copy OKNo errors occurredAccurateRip summaryTrack  1  not present in databaseTrack  2  not present in databaseTrack  3  not present in databaseTrack  4  not present in databaseTrack  5  not present in databaseTrack  6  not present in databaseTrack  7  not present in databaseTrack  8  not present in databaseTrack  9  not present in databaseTrack 10  not present in databaseTrack 11  not present in databaseTrack 12  not present in databaseTrack 13  not present in databaseTrack 14  not present in databaseTrack 15  not present in databaseTrack 16  not present in databaseTrack 17  not present in databaseTrack 18  not present in databaseTrack 19  not present in databaseTrack 20  not present in databaseTrack 21  not present in databaseTrack 22  not present in databaseTrack 23  not present in databaseTrack 24  not present in databaseTrack 25  not present in databaseTrack 26  not present in databaseNone of the tracks are present in the AccurateRip databaseEnd of status report==== Log checksum 9F9232A7B9CA0FC34A01FC4CB9899D1CD7999DEE703168977EDDF0A551E58E9C ====

Лог создания рипа cd6

Exact Audio Copy V1.3 from 2. September 2016EAC extraction logfile from 6. July 2019, 12:35Георгий Виноградов / cd6 - Кот в сапогах» (опера-сказка)Used drive  : PLEXTOR DVDR   PX-L890SA   Adapter: 1  ID: 0Read mode               : SecureUtilize accurate stream : YesDefeat audio cache      : YesMake use of C2 pointers : NoRead offset correction                      : 6Overread into Lead-In and Lead-Out          : NoFill up missing offset samples with silence : YesDelete leading and trailing silent blocks   : NoNull samples used in CRC calculations       : YesUsed interface                              : Native Win32 interface for Win NT & 2000Used output format              : User Defined EncoderSelected bitrate                : 1024 kBit/sQuality                         : HighAdd ID3 tag                     : NoCommand line compressor         : C:\Program Files (x86)\Exact Audio Copy\wavpack.exeAdditional command line options : -lm %source%TOC of the extracted CD     Track |   Start  |  Length  | Start sector | End sector    ---------------------------------------------------------        1  |  0:00.00 |  2:45.22 |         0    |    12396        2  |  2:45.22 |  2:27.00 |     12397    |    23421        3  |  5:12.22 |  2:32.68 |     23422    |    34889        4  |  7:45.15 |  2:05.74 |     34890    |    44338        5  |  9:51.14 |  0:13.57 |     44339    |    45370        6  | 10:04.71 |  2:03.64 |     45371    |    54659        7  | 12:08.60 |  1:03.10 |     54660    |    59394        8  | 13:11.70 |  0:53.59 |     59395    |    63428        9  | 14:05.54 |  1:05.27 |     63429    |    68330       10  | 15:11.06 |  2:01.04 |     68331    |    77409       11  | 17:12.10 |  0:46.14 |     77410    |    80873       12  | 17:58.24 |  0:12.49 |     80874    |    81822       13  | 18:10.73 |  3:19.17 |     81823    |    96764       14  | 21:30.15 |  1:51.72 |     96765    |   105161       15  | 23:22.12 |  0:26.61 |    105162    |   107172       16  | 23:48.73 |  2:36.27 |    107173    |   118899       17  | 26:25.25 |  0:12.73 |    118900    |   119872       18  | 26:38.23 |  2:02.36 |    119873    |   129058       19  | 28:40.59 |  0:51.26 |    129059    |   132909       20  | 29:32.10 |  6:12.63 |    132910    |   160872       21  | 35:44.73 |  0:14.60 |    160873    |   161982       22  | 35:59.58 |  7:25.16 |    161983    |   195373       23  | 43:24.74 |  0:56.05 |    195374    |   199578       24  | 44:21.04 |  1:45.29 |    199579    |   207482       25  | 46:06.33 |  2:21.45 |    207483    |   218102       26  | 48:28.03 |  4:25.26 |    218103    |   238003       27  | 52:53.29 |  1:57.50 |    238004    |   246828Range status and errorsSelected range     Filename D:\wwphil\Георгий Виноградов -  Романсы и песни (6CD Box, 2010)\cd6 - Кот в сапогах» (опера-сказка)\Георгий Виноградов - cd6 - Кот в сапогах» (опера-сказка).wav     Peak level 98.8 %     Extraction speed 9.3 X     Range quality 100.0 %     Test CRC CB47D715     Copy CRC CB47D715     Copy OKNo errors occurredAccurateRip summaryTrack  1  not present in databaseTrack  2  not present in databaseTrack  3  not present in databaseTrack  4  not present in databaseTrack  5  not present in databaseTrack  6  not present in databaseTrack  7  not present in databaseTrack  8  not present in databaseTrack  9  not present in databaseTrack 10  not present in databaseTrack 11  not present in databaseTrack 12  not present in databaseTrack 13  not present in databaseTrack 14  not present in databaseTrack 15  not present in databaseTrack 16  not present in databaseTrack 17  not present in databaseTrack 18  not present in databaseTrack 19  not present in databaseTrack 20  not present in databaseTrack 21  not present in databaseTrack 22  not present in databaseTrack 23  not present in databaseTrack 24  not present in databaseTrack 25  not present in databaseTrack 26  not present in databaseTrack 27  not present in databaseNone of the tracks are present in the AccurateRip databaseEnd of status report==== Log checksum 57FF4EF0E8AB183B64747FDC61624875BA7F3202AA0877A70C8B9881F8F7726C ====

[/pre]

Лог проверки качества

Official DR value: DR12, DR11, DR11, DR12, DR10, DR10

Скриншот спектра частот

Для примера спектр 5-го диска
Доп. информация: Знаком * отмечены записи, которые прежде не издавались ни на каких
носителях и публикуются в настоящем издании впервые

Об исполнителе (группе)

Наш зпаменитый тенор

Об альбоме (сборнике)

6 papersleeve с верхней загрузкой, буклет в картонном боксе с открывающейся верхней крышкой 24 bit remastering

To download the content you need:
1. Download and install torrent client [for Windows] or for mobile system
2. Click on [Download]
Attention.
If the test YOU are NOT a ROBOT - does not work, then You are using an outdated browser.
Install the current browser and click on [Download]
Security: torrent client is allowed by Kaspersky.

[asmlocator.ru].t649136.torrent 
Torrent: Registered [ 2019-07-07 00:05 ] · 2F6E56A56ADA4220043DB164971A8E21B57ED15F

Download .torrent

Download

16 KB

Status: checked
Completed: 0 times
Size: 2.2 GB
terms.php
[Profile] [PM]
Display posts:    
Reply to topic

Current time is: 18-Jul 05:44

All times are UTC ± 0



You cannot post new topics in this forum
You cannot reply to topics in this forum
You cannot edit your posts in this forum
You cannot delete your posts in this forum
You cannot vote in polls in this forum
You cannot attach files in this forum
You can download files in this forum