(New Age, Ambient, Tribal, Downtempo, Prog Rock, Easy Listening) CUSCO - Collection (11CD Albums) 1980-1994 FLAC (image+.cue), lossless

Reply to topic
DL-List and Torrent activity
Size:  2.81 GB   |    Registered:  15 days   |    Completed:  0 times

Seeder not seen: Never

 
   
 
 
Author Message

star21 ®

Gender: Female

Longevity: 3 years 8 months

Posts: 552042

Location: Екатеринбург

Post 03-Jul-2019 05:05

[Quote]

CUSCO - Collection (11CD Albums) 1980-1994 Жанр: New Age, Ambient, Tribal, Downtempo, Prog Rock, Easy Listening
Носитель: CD
Год издания: 1980-1994
Страна исполнителя (группы): Germany
Аудиокодек: FLAC (*.flac)
Тип рипа: image+.cue
Битрейт аудио: lossless
Продолжительность: 07:36:31
Источник: собственная покупка
Наличие сканов в содержимом раздачи: да

Cusco – Desert Island (Reissue-1980) 1989 (00:42:50)

Cusco – Desert Island (Reissue-1980) 1989Label:Landy Star Music - LS-2379
Format:CD, Album (Reissue-1980)
Country:Russia
Released:1989
Style:New Age, Ambient, Prog Rock, Easy ListeningTracklist:01. Desert Island 3:33
02. Lampedusa 4:41
03. Helgoland 3:46
04. Catalina 4:15
05. Straits Of Hormuz 4:51
06. Galapagos 3:51
07. Alcatraz 4:30
08. Hokkaido 4:03
09. Herrenchiemsee 4:52
10. Ireland 3:48

log

Exact Audio Copy V1.3 from 2. September 2016Отчёт EAC об извлечении, выполненном 9. июня 2019, 13:58Cusco / Desert IslandДисковод: SONY    CD-RW  CRX230ED   Adapter: 1  ID: 1Режим чтения                 : ДостоверностьИспользование точного потока : ДаОтключение кэша аудио        : ДаИспользование указателей C2  : НетКоррекция смещения при чтении                     : 6Способность читать области Lead-in и Lead-out     : НетЗаполнение пропущенных сэмплов тишиной            : ДаУдаление блоков с тишиной в начале и конце        : НетПри вычислениях CRC использовались нулевые сэмплы : ДаИнтерфейс                                         : Встроенный Win32-интерфейс для Win NT/2000Выходной формат : Внутренние WAV-операцииФормат сэмплов  : 44.100 Гц; 16 бит; стереоTOC извлечённого CD     Трек |   Старт  | Длительность | Начальный сектор | Конечный сектор    ---------------------------------------------------------------------       1  |  0:00.00 |    3:38.27   |           0      |      16376       2  |  3:38.27 |    4:43.70   |       16377      |      37671       3  |  8:22.22 |    3:51.08   |       37672      |      55004       4  | 12:13.30 |    4:19.10   |       55005      |      74439       5  | 16:32.40 |    4:53.67   |       74440      |      96481       6  | 21:26.32 |    3:54.33   |       96482      |     114064       7  | 25:20.65 |    4:34.60   |      114065      |     134674       8  | 29:55.50 |    4:06.25   |      134675      |     153149       9  | 34:02.00 |    4:57.07   |      153150      |     175431      10  | 38:59.07 |    3:51.30   |      175432      |     192786Характеристики диапазона извлечения и сообщения об ошибкахВыбранный диапазон     Имя файла C:\Users\Serg22\Documents\01. Cusco - Desert Island 1989\Cusco - Desert Island.wav     Пиковый уровень 82.1 %     Скорость извлечения 7.7 X     Качество диапазона 100.0 %     CRC теста 469E0A76     CRC копии 469E0A76     Копирование... OKОшибок не произошлоAccurateRip: сводкаТрек  1  точность не определена (достоверность 3)  [0C721E56], AccurateRip вернул [46AB0295]  (AR v2)Трек  2  точность не определена (достоверность 3)  [9F01D337], AccurateRip вернул [B088A5D7]  (AR v2)Трек  3  точность не определена (достоверность 3)  [68CE1E36], AccurateRip вернул [FDA19057]  (AR v2)Трек  4  точность не определена (достоверность 3)  [B61D6190], AccurateRip вернул [B6580598]  (AR v2)Трек  5  точность не определена (достоверность 3)  [F8C56E42], AccurateRip вернул [F1FDED04]  (AR v2)Трек  6  точность не определена (достоверность 3)  [24FF19CA], AccurateRip вернул [42BF6083]  (AR v2)Трек  7  точность не определена (достоверность 3)  [3EFA9720], AccurateRip вернул [9845B231]  (AR v2)Трек  8  точность не определена (достоверность 3)  [779E6B44], AccurateRip вернул [2F8B9115]  (AR v2)Трек  9  точность не определена (достоверность 3)  [C3034E56], AccurateRip вернул [CF1E0489]  (AR v2)Трек 10  точность не определена (достоверность 3)  [FA363BC1], AccurateRip вернул [4149289D]  (AR v2)Ни один трек не прошёл проверки на точностьВ вашей базе может быть иной вариант штамповки дискаКонец отчёта==== Контрольная сумма отчёта 961644726B20BADB69C4BF2A246ED911DA1CBF4DB5605A1892D514AB54F1FAA0 ====

Cue

REM GENRE "New Age"REM DATE 1989REM DISCID 7D0A0A0AREM COMMENT "ExactAudioCopy v1.3"CATALOG 0000000000000PERFORMER "Cusco"TITLE "Desert Island"FILE "Cusco - Desert Island.flac" WAVE  TRACK 01 AUDIO    TITLE "Desert Island"    PERFORMER "Cusco"    INDEX 01 00:00:00  TRACK 02 AUDIO    TITLE "Lampedusa"    PERFORMER "Cusco"    INDEX 01 03:38:27  TRACK 03 AUDIO    TITLE "Helgoland"    PERFORMER "Cusco"    INDEX 01 08:22:22  TRACK 04 AUDIO    TITLE "Catalina"    PERFORMER "Cusco"    INDEX 01 12:13:30  TRACK 05 AUDIO    TITLE "Straits of Hormuz"    PERFORMER "Cusco"    INDEX 01 16:32:40  TRACK 06 AUDIO    TITLE "Galapagos"    PERFORMER "Cusco"    INDEX 01 21:26:32  TRACK 07 AUDIO    TITLE "Alcatraz"    PERFORMER "Cusco"    INDEX 01 25:20:65  TRACK 08 AUDIO    TITLE "Hokkaido"    PERFORMER "Cusco"    INDEX 01 29:55:50  TRACK 09 AUDIO    TITLE "Herrenchiemsee"    PERFORMER "Cusco"    INDEX 01 34:02:00  TRACK 10 AUDIO    TITLE "Ireland"    PERFORMER "Cusco"    INDEX 01 38:59:07

Cusco - Cusco II 1981 (00:44:34)

Cusco - Cusco II 1981Label:Landy Star Music - LS-2479
Format:CD, Album
Country:Russia
Released:1981
Style:New AgeTracklist:01. Bodensee 4:50
02. Lake Of Ozarks 3:49
03. Nanga Parbat 3:32
04. Aetna 3:41
05. Königsee 2:56
06. Kilimanjaro 3:43
07. Lake Erie 3:44
08. Athos 3:30
09. Fujiyama 3:32
10. Lake Victoria 4:34
11. Machu Picchu 4:06
12. Baikal Lake 2:23

Log

Exact Audio Copy V1.3 from 2. September 2016Отчёт EAC об извлечении, выполненном 9. июня 2019, 14:16Cusco / Cusco IIДисковод: SONY    CD-RW  CRX230ED   Adapter: 1  ID: 1Режим чтения                 : ДостоверностьИспользование точного потока : ДаОтключение кэша аудио        : ДаИспользование указателей C2  : НетКоррекция смещения при чтении                     : 6Способность читать области Lead-in и Lead-out     : НетЗаполнение пропущенных сэмплов тишиной            : ДаУдаление блоков с тишиной в начале и конце        : НетПри вычислениях CRC использовались нулевые сэмплы : ДаИнтерфейс                                         : Встроенный Win32-интерфейс для Win NT/2000Выходной формат : Внутренние WAV-операцииФормат сэмплов  : 44.100 Гц; 16 бит; стереоTOC извлечённого CD     Трек |   Старт  | Длительность | Начальный сектор | Конечный сектор    ---------------------------------------------------------------------       1  |  0:00.00 |    4:50.00   |           0      |      21749       2  |  4:50.00 |    3:50.45   |       21750      |      39044       3  |  8:40.45 |    3:33.53   |       39045      |      55072       4  | 12:14.23 |    3:42.65   |       55073      |      71787       5  | 15:57.13 |    2:57.70   |       71788      |      85132       6  | 18:55.08 |    3:44.52   |       85133      |     101984       7  | 22:39.60 |    3:45.55   |      101985      |     118914       8  | 26:25.40 |    3:31.00   |      118915      |     134739       9  | 29:56.40 |    3:33.55   |      134740      |     150769      10  | 33:30.20 |    4:34.25   |      150770      |     171344      11  | 38:04.45 |    4:06.55   |      171345      |     189849      12  | 42:11.25 |    2:23.30   |      189850      |     200604Характеристики диапазона извлечения и сообщения об ошибкахВыбранный диапазон     Имя файла C:\Users\Serg22\Documents\02. Cusco - Cusco II 1981\Cusco - Cusco II.wav     Пиковый уровень 85.4 %     Скорость извлечения 7.9 X     Качество диапазона 100.0 %     CRC теста 56B08F77     CRC копии 56B08F77     Копирование... OKОшибок не произошлоAccurateRip: сводкаТрек  1  : извлечено точно (доверие 2)  [2806D14C]  (AR v1)Трек  2  : извлечено точно (доверие 2)  [E247BFC5]  (AR v1)Трек  3  : извлечено точно (доверие 2)  [A40B1C51]  (AR v1)Трек  4  : извлечено точно (доверие 2)  [499AF588]  (AR v1)Трек  5  : извлечено точно (доверие 2)  [9961C24E]  (AR v1)Трек  6  : извлечено точно (доверие 2)  [F6189D11]  (AR v1)Трек  7  : извлечено точно (доверие 2)  [AEB74DDB]  (AR v1)Трек  8  : извлечено точно (доверие 2)  [C7519B94]  (AR v1)Трек  9  : извлечено точно (доверие 2)  [138C926D]  (AR v1)Трек 10  : извлечено точно (доверие 2)  [0FB7E636]  (AR v1)Трек 11  : извлечено точно (доверие 2)  [7C27DD73]  (AR v1)Трек 12  : извлечено точно (доверие 2)  [DA7CF298]  (AR v1)Все треки извлечены точноКонец отчёта==== Контрольная сумма отчёта 8E9385CE0C2B6B850996ED2178311F9E4D8940CA85CF1D48A697019614858917 ====

Cue

REM GENRE AmbientREM DATE 1981REM DISCID A80A720CREM COMMENT "ExactAudioCopy v1.3"CATALOG 0000000000000PERFORMER "Cusco"TITLE "Cusco II"FILE "Cusco - Cusco II.flac" WAVE  TRACK 01 AUDIO    TITLE "Bodensee"    PERFORMER "Cusco"    INDEX 01 00:00:00  TRACK 02 AUDIO    TITLE "Lake of the Ozarks"    PERFORMER "Cusco"    INDEX 01 04:50:00  TRACK 03 AUDIO    TITLE "Nanga Parbat"    PERFORMER "Cusco"    INDEX 01 08:40:45  TRACK 04 AUDIO    TITLE "Aetna"    PERFORMER "Cusco"    INDEX 01 12:14:23  TRACK 05 AUDIO    TITLE "Konigsee"    PERFORMER "Cusco"    INDEX 01 15:57:13  TRACK 06 AUDIO    TITLE "Kilimanjaro"    PERFORMER "Cusco"    INDEX 01 18:55:08  TRACK 07 AUDIO    TITLE "Lake Erie"    PERFORMER "Cusco"    INDEX 00 22:39:59    INDEX 01 22:39:60  TRACK 08 AUDIO    TITLE "Athos"    PERFORMER "Cusco"    INDEX 01 26:25:40  TRACK 09 AUDIO    TITLE "Fujiyama"    PERFORMER "Cusco"    INDEX 01 29:56:40  TRACK 10 AUDIO    TITLE "Lake Victoria"    PERFORMER "Cusco"    INDEX 01 33:30:20  TRACK 11 AUDIO    TITLE "Machu Picchu"    PERFORMER "Cusco"    INDEX 01 38:04:45  TRACK 12 AUDIO    TITLE "Baikal Lake"    PERFORMER "Cusco"    INDEX 01 42:11:25

Cusco - Cool Island (Reissue-1982) 1989 (00:39:47)

Cusco - Cool Island (Reissue-1982) 1989Label:Lady Star Music - LS-2478
Format:CD, Album (Reissue-1982)
Country:Russia
Released:1989
Style:Easy Listening, Prog Rock, AmbientTracklist:01. Aurora 3:15
02. Antarctic Continent 3:26
03. Penguin Dance 3:12
04. North Easter 5:10
05. Whale 4:25
06. Walrus 3:35
07. North Pole 3:40
08. Iceberg 4:21
09. Blizzard 3:24
10. Tundra 5:05

log

Exact Audio Copy V1.3 from 2. September 2016Отчёт EAC об извлечении, выполненном 9. июня 2019, 14:30Cusco / Cool IslandДисковод: SONY    CD-RW  CRX230ED   Adapter: 1  ID: 1Режим чтения                 : ДостоверностьИспользование точного потока : ДаОтключение кэша аудио        : ДаИспользование указателей C2  : НетКоррекция смещения при чтении                     : 6Способность читать области Lead-in и Lead-out     : НетЗаполнение пропущенных сэмплов тишиной            : ДаУдаление блоков с тишиной в начале и конце        : НетПри вычислениях CRC использовались нулевые сэмплы : ДаИнтерфейс                                         : Встроенный Win32-интерфейс для Win NT/2000Выходной формат : Внутренние WAV-операцииФормат сэмплов  : 44.100 Гц; 16 бит; стереоTOC извлечённого CD     Трек |   Старт  | Длительность | Начальный сектор | Конечный сектор    ---------------------------------------------------------------------       1  |  0:00.00 |    3:16.47   |           0      |      14746       2  |  3:16.47 |    3:26.45   |       14747      |      30241       3  |  6:43.17 |    3:13.10   |       30242      |      44726       4  |  9:56.27 |    5:10.28   |       44727      |      68004       5  | 15:06.55 |    4:26.60   |       68005      |      88014       6  | 19:33.40 |    3:36.65   |       88015      |     104279       7  | 23:10.30 |    3:41.25   |      104280      |     120879       8  | 26:51.55 |    4:22.70   |      120880      |     140599       9  | 31:14.50 |    3:27.10   |      140600      |     156134      10  | 34:41.60 |    5:05.30   |      156135      |     179039Характеристики диапазона извлечения и сообщения об ошибкахВыбранный диапазон     Имя файла C:\Users\Serg22\Documents\03. Cusco - Cool Island 1989\Cusco - Cool Island.wav     Пиковый уровень 85.3 %     Скорость извлечения 7.7 X     Качество диапазона 100.0 %     CRC теста D7A5E3A6     CRC копии D7A5E3A6     Копирование... OKОшибок не произошлоAccurateRip: сводкаТрек  1  точность не определена (достоверность 7)  [376F6D34], AccurateRip вернул [C39D2016]  (AR v2)Трек  2  точность не определена (достоверность 7)  [C2DF4D20], AccurateRip вернул [3EDBB5B3]  (AR v2)Трек  3  точность не определена (достоверность 7)  [C8A16756], AccurateRip вернул [16C1D004]  (AR v2)Трек  4  точность не определена (достоверность 7)  [FF923E65], AccurateRip вернул [0326B4D8]  (AR v2)Трек  5  точность не определена (достоверность 7)  [D82A2A02], AccurateRip вернул [7A9546A6]  (AR v2)Трек  6  точность не определена (достоверность 7)  [97192FBE], AccurateRip вернул [730161F0]  (AR v2)Трек  7  точность не определена (достоверность 7)  [88C076CF], AccurateRip вернул [08A15A93]  (AR v2)Трек  8  точность не определена (достоверность 7)  [A58ADA42], AccurateRip вернул [1091DA4D]  (AR v2)Трек  9  точность не определена (достоверность 7)  [7A40E28B], AccurateRip вернул [1CB72C3D]  (AR v2)Трек 10  точность не определена (достоверность 7)  [F8860F2E], AccurateRip вернул [7B778507]  (AR v2)Ни один трек не прошёл проверки на точностьВ вашей базе может быть иной вариант штамповки дискаКонец отчёта==== Контрольная сумма отчёта C83D3EED8DFDE0E43F19D9EBC744324D10B9204831D98CF35E39C9507793D1D1 ====

Cue

REM GENRE "New Age"REM DATE 1989REM DISCID 8F09530AREM COMMENT "ExactAudioCopy v1.3"CATALOG 0000000000000PERFORMER "Cusco"TITLE "Cool Island"FILE "Cusco - Cool Island.flac" WAVE  TRACK 01 AUDIO    TITLE "Aurora"    PERFORMER "Cusco"    INDEX 01 00:00:00  TRACK 02 AUDIO    TITLE "Antarctic Continent"    PERFORMER "Cusco"    INDEX 01 03:16:47  TRACK 03 AUDIO    TITLE "Penguin Dance"    PERFORMER "Cusco"    INDEX 01 06:43:17  TRACK 04 AUDIO    TITLE "North Easter"    PERFORMER "Cusco"    INDEX 01 09:56:27  TRACK 05 AUDIO    TITLE "Whale"    PERFORMER "Cusco"    INDEX 01 15:06:55  TRACK 06 AUDIO    TITLE "Walrus"    PERFORMER "Cusco"    INDEX 01 19:33:40  TRACK 07 AUDIO    TITLE "North Pole"    PERFORMER "Cusco"    INDEX 01 23:10:30  TRACK 08 AUDIO    TITLE "Iceberg"    PERFORMER "Cusco"    INDEX 01 26:51:55  TRACK 09 AUDIO    TITLE "Blizzard"    PERFORMER "Cusco"    INDEX 01 31:14:50  TRACK 10 AUDIO    TITLE "Tundra"    PERFORMER "Cusco"    INDEX 01 34:41:60

Cusco - Virgin Island (Reissue-1983) 1985 (00:41:27)

Cusco - Virgin Island (Reissue-1983) 1985Label:Landy Star Music - LS-2493
Format:CD, Album (Reissue-1983)
Country:Russia
Released:1985
Style:New Age, Ambient, Downtempo, Easy ListeningTracklist:01. Virgin Islands 3:09
02. Santo Domingo 3:02
03. Easter Islands 4:55
04. Bali 2:36
05. Philippines 4:01
06. Sun Of Jamaica 4:07
07. Alcatraz 2:40
08. Seychelles 3:14
09. Samoa 3:01
10. Fiji Islands 4:08
11. Java 2:51
12. Saipan Islands 3:25

Log

Exact Audio Copy V1.3 from 2. September 2016Отчёт EAC об извлечении, выполненном 9. июня 2019, 14:48Cusco / Virgin IslandДисковод: SONY    CD-RW  CRX230ED   Adapter: 1  ID: 1Режим чтения                 : ДостоверностьИспользование точного потока : ДаОтключение кэша аудио        : ДаИспользование указателей C2  : НетКоррекция смещения при чтении                     : 6Способность читать области Lead-in и Lead-out     : НетЗаполнение пропущенных сэмплов тишиной            : ДаУдаление блоков с тишиной в начале и конце        : НетПри вычислениях CRC использовались нулевые сэмплы : ДаИнтерфейс                                         : Встроенный Win32-интерфейс для Win NT/2000Выходной формат : Внутренние WAV-операцииФормат сэмплов  : 44.100 Гц; 16 бит; стереоTOC извлечённого CD     Трек |   Старт  | Длительность | Начальный сектор | Конечный сектор    ---------------------------------------------------------------------       1  |  0:00.00 |    3:09.42   |           0      |      14216       2  |  3:09.42 |    3:03.38   |       14217      |      27979       3  |  6:13.05 |    4:56.50   |       27980      |      50229       4  | 11:09.55 |    2:37.72   |       50230      |      62076       5  | 13:47.52 |    4:02.03   |       62077      |      80229       6  | 17:49.55 |    4:09.05   |       80230      |      98909       7  | 21:58.60 |    2:42.62   |       98910      |     111121       8  | 24:41.47 |    3:16.08   |      111122      |     125829       9  | 27:57.55 |    3:03.62   |      125830      |     139616      10  | 31:01.42 |    4:08.58   |      139617      |     158274      11  | 35:10.25 |    2:52.05   |      158275      |     171179      12  | 38:02.30 |    3:25.40   |      171180      |     186594Характеристики диапазона извлечения и сообщения об ошибкахВыбранный диапазон     Имя файла C:\Users\Serg22\Documents\04. Cusco - Virgin Island 1985\Cusco - Virgin Island.wav     Пиковый уровень 87.6 %     Скорость извлечения 7.5 X     Качество диапазона 100.0 %     CRC теста EB471200     CRC копии EB471200     Копирование... OKОшибок не произошлоAccurateRip: сводкаТрек  1  точность не определена (достоверность 5)  [92003049], AccurateRip вернул [E315C056]  (AR v2)Трек  2  точность не определена (достоверность 5)  [9DC157EA], AccurateRip вернул [475EC974]  (AR v2)Трек  3  точность не определена (достоверность 5)  [0A5581AD], AccurateRip вернул [5067F47D]  (AR v2)Трек  4  точность не определена (достоверность 5)  [DC1C60F0], AccurateRip вернул [BB623F1E]  (AR v2)Трек  5  точность не определена (достоверность 5)  [4AA98077], AccurateRip вернул [A2AD62C2]  (AR v2)Трек  6  точность не определена (достоверность 5)  [561FEC29], AccurateRip вернул [0495CDBC]  (AR v2)Трек  7  точность не определена (достоверность 5)  [465D8FC2], AccurateRip вернул [5668248C]  (AR v2)Трек  8  точность не определена (достоверность 5)  [876B6A79], AccurateRip вернул [CF40256F]  (AR v2)Трек  9  точность не определена (достоверность 5)  [46F9E019], AccurateRip вернул [35406BDE]  (AR v2)Трек 10  точность не определена (достоверность 5)  [25C95EE1], AccurateRip вернул [8BD71EB3]  (AR v2)Трек 11  точность не определена (достоверность 5)  [64BF119E], AccurateRip вернул [A60E20C7]  (AR v2)Трек 12  точность не определена (достоверность 5)  [D89440A6], AccurateRip вернул [7A4C47A9]  (AR v2)Ни один трек не прошёл проверки на точностьВ вашей базе может быть иной вариант штамповки дискаКонец отчёта==== Контрольная сумма отчёта 4D6E800D018B9F3CDB42A55337F3769A22F50EE72094E42D7EB691812B65A58F ====

Cue

REM GENRE "New Age"REM DATE 1985REM DISCID 9B09B70CREM COMMENT "ExactAudioCopy v1.3"CATALOG 0000000000000PERFORMER "Cusco"TITLE "Virgin Island"FILE "Cusco - Virgin Island.flac" WAVE  TRACK 01 AUDIO    TITLE "Virgin Islands"    PERFORMER "Cusco"    INDEX 01 00:00:00  TRACK 02 AUDIO    TITLE "Santo Domingo"    PERFORMER "Cusco"    INDEX 01 03:09:42  TRACK 03 AUDIO    TITLE "Easter Islands"    PERFORMER "Cusco"    INDEX 01 06:13:05  TRACK 04 AUDIO    TITLE "Bali"    PERFORMER "Cusco"    INDEX 01 11:09:55  TRACK 05 AUDIO    TITLE "Philippines"    PERFORMER "Cusco"    INDEX 01 13:47:52  TRACK 06 AUDIO    TITLE "Sun Of Jamaica"    PERFORMER "Cusco"    INDEX 01 17:49:55  TRACK 07 AUDIO    TITLE "Alcatraz"    PERFORMER "Cusco"    INDEX 01 21:58:60  TRACK 08 AUDIO    TITLE "Seychelles"    PERFORMER "Cusco"    INDEX 01 24:41:47  TRACK 09 AUDIO    TITLE "Samoa"    PERFORMER "Cusco"    INDEX 01 27:57:55  TRACK 10 AUDIO    TITLE "Fiji Islands"    PERFORMER "Cusco"    INDEX 01 31:01:42  TRACK 11 AUDIO    TITLE "Java"    PERFORMER "Cusco"    INDEX 01 35:10:25  TRACK 12 AUDIO    TITLE "Saipan Islands"    PERFORMER "Cusco"    INDEX 01 38:02:30

Cusco - Apurimac (Reissue-1984) 1988 (00:39:54)

Cusco - Apurimac (Reissue-1984) 1988Label:Landy Star Music - LS-2472
Format:CD, Album (Reissue-1984)
Country:Russia
Released:1988
Style:New AgeTracklist:01. Apurimac 3:43
02. Flute Battle 2:35
03. Tupac Amaru 3:03
04. Flying Condor 5:02
05. Inca Dance 2:43
06. Pastorale 2:22
07. Amazonas 3:47
08. Inca Bridges 3:21
09. Andes 3:51
10. Atahualpa - The Last Inca 3:51
11. Fighting Inca 3:22
12. Apurimac II 1:29

log

Exact Audio Copy V1.3 from 2. September 2016Отчёт EAC об извлечении, выполненном 9. июня 2019, 15:06Cusco / ApurimacДисковод: SONY    CD-RW  CRX230ED   Adapter: 1  ID: 1Режим чтения                 : ДостоверностьИспользование точного потока : ДаОтключение кэша аудио        : ДаИспользование указателей C2  : НетКоррекция смещения при чтении                     : 6Способность читать области Lead-in и Lead-out     : НетЗаполнение пропущенных сэмплов тишиной            : ДаУдаление блоков с тишиной в начале и конце        : НетПри вычислениях CRC использовались нулевые сэмплы : ДаИнтерфейс                                         : Встроенный Win32-интерфейс для Win NT/2000Выходной формат : Внутренние WAV-операцииФормат сэмплов  : 44.100 Гц; 16 бит; стереоTOC извлечённого CD     Трек |   Старт  | Длительность | Начальный сектор | Конечный сектор    ---------------------------------------------------------------------       1  |  0:00.00 |    3:47.32   |           0      |      17056       2  |  3:47.32 |    2:39.37   |       17057      |      29018       3  |  6:26.69 |    3:07.40   |       29019      |      43083       4  |  9:34.34 |    5:05.72   |       43084      |      66030       5  | 14:40.31 |    2:47.09   |       66031      |      78564       6  | 17:27.40 |    2:25.25   |       78565      |      89464       7  | 19:52.65 |    3:51.02   |       89465      |     106791       8  | 23:43.67 |    3:25.12   |      106792      |     122178       9  | 27:09.04 |    3:54.69   |      122179      |     139797      10  | 31:03.73 |    3:55.02   |      139798      |     157424      11  | 34:59.00 |    3:26.00   |      157425      |     172874      12  | 38:25.00 |    1:29.54   |      172875      |     179603Характеристики диапазона извлечения и сообщения об ошибкахВыбранный диапазон     Имя файла C:\Users\Serg22\Documents\05. Cusco - Apurimac 1988\Cusco - Apurimac.wav     Пиковый уровень 100.0 %     Скорость извлечения 6.9 X     Качество диапазона 99.9 %     CRC теста 49C2E224     CRC копии 49C2E224     Копирование... OKОшибок не произошлоAccurateRip: сводкаТрек  1  : извлечено точно (доверие 1)  [43489EB0]  (AR v1)Трек  2  : извлечено точно (доверие 1)  [C0873BE9]  (AR v1)Трек  3  : извлечено точно (доверие 1)  [E7A13620]  (AR v1)Трек  4  : извлечено точно (доверие 1)  [01C383F8]  (AR v1)Трек  5  : извлечено точно (доверие 1)  [B163666B]  (AR v1)Трек  6  : извлечено точно (доверие 1)  [776FD37C]  (AR v1)Трек  7  : извлечено точно (доверие 1)  [604FB67D]  (AR v1)Трек  8  : извлечено точно (доверие 1)  [7B33FCB5]  (AR v1)Трек  9  : извлечено точно (доверие 1)  [A371A0EE]  (AR v1)Трек 10  : извлечено точно (доверие 1)  [C3F7ECB8]  (AR v1)Трек 11  : извлечено точно (доверие 1)  [0619C06F]  (AR v1)Трек 12  : извлечено точно (доверие 1)  [DC448B78]  (AR v1)Все треки извлечены точноКонец отчёта==== Контрольная сумма отчёта 2EECD41DE524BCC81CDA4B4B38658371015C3085F4FFAC1BD1720B7201A085A6 ====

Cue

REM GENRE "New Age"REM DATE 1988REM DISCID 9E095A0CREM COMMENT "ExactAudioCopy v1.3"CATALOG 0000000000000PERFORMER "Cusco"TITLE "Apurimac"FILE "Cusco - Apurimac.flac" WAVE  TRACK 01 AUDIO    TITLE "Apurimac"    PERFORMER "Cusco"    INDEX 01 00:00:00  TRACK 02 AUDIO    TITLE "Flute Battle"    PERFORMER "Cusco"    INDEX 00 03:45:33    INDEX 01 03:47:32  TRACK 03 AUDIO    TITLE "Tupac Amaru"    PERFORMER "Cusco"    INDEX 00 06:24:70    INDEX 01 06:26:69  TRACK 04 AUDIO    TITLE "Flying Condor"    PERFORMER "Cusco"    INDEX 00 09:32:35    INDEX 01 09:34:34  TRACK 05 AUDIO    TITLE "Inca Dance"    PERFORMER "Cusco"    INDEX 00 14:38:32    INDEX 01 14:40:31  TRACK 06 AUDIO    TITLE "Pastorale"    PERFORMER "Cusco"    INDEX 00 17:25:41    INDEX 01 17:27:40  TRACK 07 AUDIO    TITLE "Amazonas"    PERFORMER "Cusco"    INDEX 00 19:50:66    INDEX 01 19:52:65  TRACK 08 AUDIO    TITLE "Inca Bridges"    PERFORMER "Cusco"    INDEX 00 23:41:68    INDEX 01 23:43:67  TRACK 09 AUDIO    TITLE "Andes"    PERFORMER "Cusco"    INDEX 00 27:07:05    INDEX 01 27:09:04  TRACK 10 AUDIO    TITLE "Atahualpa - The Last Inca"    PERFORMER "Cusco"    INDEX 00 31:01:74    INDEX 01 31:03:73  TRACK 11 AUDIO    TITLE "Fighting Inca"    PERFORMER "Cusco"    INDEX 00 34:57:01    INDEX 01 34:59:00  TRACK 12 AUDIO    TITLE "Apurimac II"    PERFORMER "Cusco"    INDEX 00 38:23:01    INDEX 01 38:25:00

Cusco - Mystic Island (Compilation) 1989 (00:48:54)

Cusco - Mystic Island (Compilation) 1989Label:Landy Star Music - LS-2476
Format:CD, Compilation
Country:Russia
Released:1989
Style:New Age, Ambient, Easy ListeningTracklist:01. North Easter 4:13
02. Lucky Jack 5:20
03. Catalina 4:20
04. Fireshoes 4:14
05. Solitude 5:49
06. Leo 4:58
07. The Fox And The Lady 4:22
08. Milky Way 5:35
09. Lonely Rose 5:02
10. Pisces 4:19

Log

Exact Audio Copy V1.3 from 2. September 2016Отчёт EAC об извлечении, выполненном 9. июня 2019, 15:35Cusco / Mystic IslandДисковод: SONY    CD-RW  CRX230ED   Adapter: 1  ID: 1Режим чтения                 : ДостоверностьИспользование точного потока : ДаОтключение кэша аудио        : ДаИспользование указателей C2  : НетКоррекция смещения при чтении                     : 6Способность читать области Lead-in и Lead-out     : НетЗаполнение пропущенных сэмплов тишиной            : ДаУдаление блоков с тишиной в начале и конце        : НетПри вычислениях CRC использовались нулевые сэмплы : ДаИнтерфейс                                         : Встроенный Win32-интерфейс для Win NT/2000Выходной формат : Внутренние WAV-операцииФормат сэмплов  : 44.100 Гц; 16 бит; стереоTOC извлечённого CD     Трек |   Старт  | Длительность | Начальный сектор | Конечный сектор    ---------------------------------------------------------------------       1  |  0:00.00 |    4:18.03   |           0      |      19352       2  |  4:18.03 |    5:25.27   |       19353      |      43754       3  |  9:43.30 |    4:24.30   |       43755      |      63584       4  | 14:07.60 |    4:19.03   |       63585      |      83012       5  | 18:26.63 |    5:52.65   |       83013      |     109477       6  | 24:19.53 |    5:02.05   |      109478      |     132132       7  | 29:21.58 |    4:26.72   |      132133      |     152154       8  | 33:48.55 |    5:39.50   |      152155      |     177629       9  | 39:28.30 |    5:04.65   |      177630      |     200494      10  | 44:33.20 |    4:21.28   |      200495      |     220097Характеристики диапазона извлечения и сообщения об ошибкахВыбранный диапазон     Имя файла C:\Users\Serg22\Documents\01. Cusco - Mystic Island 1989\Cusco - Mystic Island.wav     Пиковый уровень 84.7 %     Скорость извлечения 4.7 X     Качество диапазона 100.0 %     CRC теста 72511F05     CRC копии 72511F05     Копирование... OKОшибок не произошлоAccurateRip: сводкаТрек  1  отсутствует в базе данныхТрек  2  отсутствует в базе данныхТрек  3  отсутствует в базе данныхТрек  4  отсутствует в базе данныхТрек  5  отсутствует в базе данныхТрек  6  отсутствует в базе данныхТрек  7  отсутствует в базе данныхТрек  8  отсутствует в базе данныхТрек  9  отсутствует в базе данныхТрек 10  отсутствует в базе данныхНи одного трека нет в базе AccurateRipКонец отчёта==== Контрольная сумма отчёта 79429C58AA8399D0DAD34FBDE2417A2F368EFF1FDCB4B560AF01468FEDB3A8C8 ====

Cue

REM GENRE "Easy Listening"REM DATE 1989REM DISCID 7D0B760AREM COMMENT "ExactAudioCopy v1.3"PERFORMER "Cusco"TITLE "Mystic Island"FILE "Cusco - Mystic Island.flac" WAVE  TRACK 01 AUDIO    TITLE "North Easter"    PERFORMER "Cusco"    INDEX 01 00:00:00  TRACK 02 AUDIO    TITLE "Lucky Jack"    PERFORMER "Cusco"    INDEX 01 04:18:03  TRACK 03 AUDIO    TITLE "Catalina"    PERFORMER "Cusco"    INDEX 01 09:43:30  TRACK 04 AUDIO    TITLE "Fireshoes"    PERFORMER "Cusco"    INDEX 01 14:07:60  TRACK 05 AUDIO    TITLE "Solitude"    PERFORMER "Cusco"    INDEX 01 18:26:63  TRACK 06 AUDIO    TITLE "Leo"    PERFORMER "Cusco"    INDEX 01 24:19:53  TRACK 07 AUDIO    TITLE "The Fox And The Lady"    PERFORMER "Cusco"    INDEX 01 29:21:58  TRACK 08 AUDIO    TITLE "Milky Way"    PERFORMER "Cusco"    INDEX 01 33:48:55  TRACK 09 AUDIO    TITLE "Lonely Rose"    PERFORMER "Cusco"    INDEX 01 39:28:30  TRACK 10 AUDIO    TITLE "Pisces"    PERFORMER "Cusco"    INDEX 01 44:33:20

Cusco - Ring Der Delphine 1989 (00:43:36)

Cusco - Ring Der Delphine 1989Label:Landy Star Music - LS-2484
Format:CD, Album
Country:Russia
Released:1989
Style:New Age, Easy Listening, Downtempo, AmbientTracklist:01. Ring Der Delphine 8:21
02. Methos 5:09
03. Der Zauber 3:28
04. Die Wasser Von Cesme 4:17
05. Jebel At Tarik 8:20
06. Bur Said 7:12
07. Kinderkreuzzug 4:30
08. Ring... (Repr.) 2:08

log

Exact Audio Copy V1.3 from 2. September 2016Отчёт EAC об извлечении, выполненном 9. июня 2019, 16:17Cusco / Ring der DelphineДисковод: SONY    CD-RW  CRX230ED   Adapter: 1  ID: 1Режим чтения                 : ДостоверностьИспользование точного потока : ДаОтключение кэша аудио        : ДаИспользование указателей C2  : НетКоррекция смещения при чтении                     : 6Способность читать области Lead-in и Lead-out     : НетЗаполнение пропущенных сэмплов тишиной            : ДаУдаление блоков с тишиной в начале и конце        : НетПри вычислениях CRC использовались нулевые сэмплы : ДаИнтерфейс                                         : Встроенный Win32-интерфейс для Win NT/2000Выходной формат : Внутренние WAV-операцииФормат сэмплов  : 44.100 Гц; 16 бит; стереоTOC извлечённого CD     Трек |   Старт  | Длительность | Начальный сектор | Конечный сектор    ---------------------------------------------------------------------       1  |  0:00.33 |    8:23.12   |          33      |      37769       2  |  8:23.45 |    5:10.73   |       37770      |      61092       3  | 13:34.43 |    3:30.65   |       61093      |      76907       4  | 17:05.33 |    4:17.17   |       76908      |      96199       5  | 21:22.50 |    8:22.33   |       96200      |     133882       6  | 29:45.08 |    7:13.25   |      133883      |     166382       7  | 36:58.33 |    4:30.20   |      166383      |     186652       8  | 41:28.53 |    2:08.05   |      186653      |     196257Характеристики диапазона извлечения и сообщения об ошибкахВыбранный диапазон     Имя файла C:\Users\Serg22\Documents\06. Cusco - Ring Der Delphine 1989\Cusco - Ring der Delphine.wav     Пиковый уровень 97.7 %     Скорость извлечения 7.6 X     Качество диапазона 100.0 %     CRC теста 1123D30F     CRC копии 1123D30F     Копирование... OKОшибок не произошлоAccurateRip: сводкаТрек  1  точность не определена (достоверность 7)  [9C003384], AccurateRip вернул [7FF9C505]  (AR v2)Трек  2  точность не определена (достоверность 7)  [7B7AA55E], AccurateRip вернул [EB676F48]  (AR v2)Трек  3  точность не определена (достоверность 7)  [964AAE31], AccurateRip вернул [72FB7A05]  (AR v2)Трек  4  точность не определена (достоверность 7)  [6804CA7B], AccurateRip вернул [C1E59FEB]  (AR v2)Трек  5  точность не определена (достоверность 7)  [8860D6F4], AccurateRip вернул [70ECD797]  (AR v2)Трек  6  точность не определена (достоверность 7)  [4CC0B50F], AccurateRip вернул [DAE8C8E2]  (AR v2)Трек  7  точность не определена (достоверность 5)  [60CD02F4], AccurateRip вернул [D00755BF]  (AR v2)Трек  8  точность не определена (достоверность 7)  [2FFFEC66], AccurateRip вернул [59160B5A]  (AR v2)Ни один трек не прошёл проверки на точностьВ вашей базе может быть иной вариант штамповки дискаКонец отчёта==== Контрольная сумма отчёта 8BC3BBE1768C82A641340AA079031809150C1CE7F664FAB951F0235D7C6740A2 ====

Cue

REM GENRE "New Age"REM DATE 1989REM DISCID 600A3808REM COMMENT "ExactAudioCopy v1.3"CATALOG 0000000000000PERFORMER "Cusco"TITLE "Ring der Delphine"FILE "Cusco - Ring der Delphine.flac" WAVE  TRACK 01 AUDIO    TITLE "Ring der Delphine"    PERFORMER "Cusco"    INDEX 00 00:00:00    INDEX 01 00:00:33  TRACK 02 AUDIO    TITLE "Methos"    PERFORMER "Cusco"    INDEX 00 08:22:00    INDEX 01 08:23:45  TRACK 03 AUDIO    TITLE "Der Zauber"    PERFORMER "Cusco"    INDEX 00 13:33:18    INDEX 01 13:34:43  TRACK 04 AUDIO    TITLE "Die Wasser von Cesme"    PERFORMER "Cusco"    INDEX 00 17:02:53    INDEX 01 17:05:33  TRACK 05 AUDIO    TITLE "Jebel at tarik"    PERFORMER "Cusco"    INDEX 01 21:22:50  TRACK 06 AUDIO    TITLE "Bur Saic"    PERFORMER "Cusco"    INDEX 00 29:42:50    INDEX 01 29:45:08  TRACK 07 AUDIO    TITLE "Kinderkreuzzug"    PERFORMER "Cusco"    INDEX 00 36:57:45    INDEX 01 36:58:33  TRACK 08 AUDIO    TITLE "Ring der Delphine (reprise)"    PERFORMER "Cusco"    INDEX 01 41:28:53

Cusco - Water Stories (Compilation) 1990 (00:49:40)

Cusco - Water Stories (Compilation) 1990Label:Landy Star Music - LS-3264
Format:CD, Compilation
Country:Russia
Released:1990
Style:New AgeTracklist:01. Waters Of Cesme 4:16
02. Java 2:50
03. Seychelles 3:12
04. Lake Erie 3:41
05. Bur Said 5:14
06. Jebel At Tarik 5:27
07. Sun Of Jamaica 4:05
08. Lake Of The Ozarks 3:46
09. Alcatraz 4:29
10. Bodensee 3:28
11. Aurora 3:12
12. Chorus 5:37

Log

Exact Audio Copy V1.3 from 2. September 2016Отчёт EAC об извлечении, выполненном 9. июня 2019, 17:24Cusco / Water StoriesДисковод: SONY    CD-RW  CRX230ED   Adapter: 1  ID: 1Режим чтения                 : ДостоверностьИспользование точного потока : ДаОтключение кэша аудио        : ДаИспользование указателей C2  : НетКоррекция смещения при чтении                     : 6Способность читать области Lead-in и Lead-out     : НетЗаполнение пропущенных сэмплов тишиной            : ДаУдаление блоков с тишиной в начале и конце        : НетПри вычислениях CRC использовались нулевые сэмплы : ДаИнтерфейс                                         : Встроенный Win32-интерфейс для Win NT/2000Выходной формат : Внутренние WAV-операцииФормат сэмплов  : 44.100 Гц; 16 бит; стереоTOC извлечённого CD     Трек |   Старт  | Длительность | Начальный сектор | Конечный сектор    ---------------------------------------------------------------------       1  |  0:00.00 |    4:17.46   |           0      |      19320       2  |  4:17.46 |    2:50.62   |       19321      |      32132       3  |  7:08.33 |    3:19.12   |       32133      |      47069       4  | 10:27.45 |    3:42.24   |       47070      |      63743       5  | 14:09.69 |    5:16.21   |       63744      |      87464       6  | 19:26.15 |    5:27.64   |       87465      |     112053       7  | 24:54.04 |    4:10.50   |      112054      |     130853       8  | 29:04.54 |    3:45.55   |      130854      |     147783       9  | 32:50.34 |    4:30.14   |      147784      |     168047      10  | 37:20.48 |    3:28.71   |      168048      |     183718      11  | 40:49.44 |    3:13.58   |      183719      |     198251      12  | 44:03.27 |    5:37.14   |      198252      |     223540Характеристики диапазона извлечения и сообщения об ошибкахВыбранный диапазон     Имя файла C:\Users\Serg22\Documents\02. Cusco - Water Stories (Compilation) 1990\Cusco - Water Stories.wav     Пиковый уровень 99.2 %     Скорость извлечения 6.2 X     Качество диапазона 100.0 %     CRC теста 0C944C09     CRC копии 0C944C09     Копирование... OKОшибок не произошлоAccurateRip: сводкаТрек  1  : извлечено точно (доверие 4)  [214E8CD0]  (AR v1)Трек  2  : извлечено точно (доверие 4)  [6D87A9B5]  (AR v1)Трек  3  : извлечено точно (доверие 4)  [E981E897]  (AR v1)Трек  4  : извлечено точно (доверие 4)  [BF8C4CA1]  (AR v1)Трек  5  : извлечено точно (доверие 4)  [4854612F]  (AR v1)Трек  6  : извлечено точно (доверие 4)  [73A23FAC]  (AR v1)Трек  7  : извлечено точно (доверие 4)  [56A21DF7]  (AR v1)Трек  8  : извлечено точно (доверие 4)  [760FEA0A]  (AR v1)Трек  9  : извлечено точно (доверие 4)  [9BCF7918]  (AR v1)Трек 10  : извлечено точно (доверие 4)  [0970D726]  (AR v1)Трек 11  : извлечено точно (доверие 4)  [B53B8C58]  (AR v1)Трек 12  : извлечено точно (доверие 4)  [A327186F]  (AR v1)Все треки извлечены точноКонец отчёта==== Контрольная сумма отчёта BBC96184309E787FF23B55ADB678625383ED3159D13740E108EC3710C008B6BD ====

Cue

REM GENRE "New Age"REM DATE 1990REM DISCID A80BA40CREM COMMENT "ExactAudioCopy v1.3"PERFORMER "Cusco"TITLE "Water Stories"FILE "Cusco - Water Stories.flac" WAVE  TRACK 01 AUDIO    TITLE "Waters of Cesme"    PERFORMER "Cusco"    INDEX 01 00:00:00  TRACK 02 AUDIO    TITLE "Java"    PERFORMER "Cusco"    INDEX 00 04:16:47    INDEX 01 04:17:46  TRACK 03 AUDIO    TITLE "Seychelles"    PERFORMER "Cusco"    INDEX 00 07:07:35    INDEX 01 07:08:33  TRACK 04 AUDIO    TITLE "Lake Erie"    PERFORMER "Cusco"    INDEX 00 10:26:46    INDEX 01 10:27:45  TRACK 05 AUDIO    TITLE "Bur Said"    PERFORMER "Cusco"    INDEX 00 14:08:71    INDEX 01 14:09:69  TRACK 06 AUDIO    TITLE "Jebel at Tarik"    PERFORMER "Cusco"    INDEX 00 19:25:17    INDEX 01 19:26:15  TRACK 07 AUDIO    TITLE "Sun of Jamaica"    PERFORMER "Cusco"    INDEX 00 24:53:05    INDEX 01 24:54:04  TRACK 08 AUDIO    TITLE "Lake of the Ozarks"    PERFORMER "Cusco"    INDEX 00 29:03:55    INDEX 01 29:04:54  TRACK 09 AUDIO    TITLE "Alcatraz"    PERFORMER "Cusco"    INDEX 00 32:49:35    INDEX 01 32:50:34  TRACK 10 AUDIO    TITLE "Bodensee"    PERFORMER "Cusco"    INDEX 00 37:19:49    INDEX 01 37:20:48  TRACK 11 AUDIO    TITLE "Aurora"    PERFORMER "Cusco"    INDEX 00 40:48:45    INDEX 01 40:49:44  TRACK 12 AUDIO    TITLE "Chorus"    PERFORMER "Cusco"    INDEX 00 44:02:28    INDEX 01 44:03:27

Cusco - 2000 1992 (00:41:59)

Cusco - 2000 1992Label:Landy Star Music - LS-2347
Format:CD, Album
Country:Russia
Released:1992
Style:New Age, AmbientTracklist:01. Islands Of The Galapagos
02. South America
03. North Easter
04. Rift Valley
05. Dark Fascination
06. Canada - Last Paradise
07. Serengeti
08. Rhythm Of The Wilderness
09. Africa - Afrika
10. Flying Condor

log

Exact Audio Copy V1.3 from 2. September 2016Отчёт EAC об извлечении, выполненном 9. июня 2019, 16:37Cusco / Cusco 2000Дисковод: SONY    CD-RW  CRX230ED   Adapter: 1  ID: 1Режим чтения                 : ДостоверностьИспользование точного потока : ДаОтключение кэша аудио        : ДаИспользование указателей C2  : НетКоррекция смещения при чтении                     : 6Способность читать области Lead-in и Lead-out     : НетЗаполнение пропущенных сэмплов тишиной            : ДаУдаление блоков с тишиной в начале и конце        : НетПри вычислениях CRC использовались нулевые сэмплы : ДаИнтерфейс                                         : Встроенный Win32-интерфейс для Win NT/2000Выходной формат : Внутренние WAV-операцииФормат сэмплов  : 44.100 Гц; 16 бит; стереоTOC извлечённого CD     Трек |   Старт  | Длительность | Начальный сектор | Конечный сектор    ---------------------------------------------------------------------       1  |  0:00.00 |    3:55.22   |           0      |      17646       2  |  3:55.22 |    3:28.62   |       17647      |      33308       3  |  7:24.09 |    3:49.47   |       33309      |      50530       4  | 11:13.56 |    4:55.62   |       50531      |      72717       5  | 16:09.43 |    3:43.49   |       72718      |      89491       6  | 19:53.17 |    4:52.40   |       89492      |     111431       7  | 24:45.57 |    3:23.54   |      111432      |     126710       8  | 28:09.36 |    4:21.32   |      126711      |     146317       9  | 32:30.68 |    4:07.37   |      146318      |     164879      10  | 36:38.30 |    5:21.07   |      164880      |     188961Характеристики диапазона извлечения и сообщения об ошибкахВыбранный диапазон     Имя файла C:\Users\Serg22\Documents\07. Cusco - Cusco 2000 1992\Cusco - Cusco 2000.wav     Пиковый уровень 98.2 %     Скорость извлечения 7.3 X     Качество диапазона 100.0 %     CRC теста 58795095     CRC копии 58795095     Копирование... OKОшибок не произошлоAccurateRip: сводкаТрек  1  : извлечено точно (доверие 2)  [B0A9CC80]  (AR v1)Трек  2  : извлечено точно (доверие 2)  [61827587]  (AR v1)Трек  3  : извлечено точно (доверие 2)  [E29A2793]  (AR v1)Трек  4  : извлечено точно (доверие 2)  [ED383110]  (AR v1)Трек  5  : извлечено точно (доверие 2)  [FF20EA10]  (AR v1)Трек  6  : извлечено точно (доверие 2)  [DC57DDF1]  (AR v1)Трек  7  : извлечено точно (доверие 2)  [8DA1967D]  (AR v1)Трек  8  : извлечено точно (доверие 2)  [997D61F2]  (AR v1)Трек  9  : извлечено точно (доверие 2)  [2A3D5B09]  (AR v1)Трек 10  : извлечено точно (доверие 2)  [E5086D77]  (AR v1)Все треки извлечены точноКонец отчёта==== Контрольная сумма отчёта E7D478637070C9553BB4BDE9855EB7A56B07DB9793553981EC3D7A302F36DF69 ====

Cue

REM GENRE "New Age"REM DATE 1992REM DISCID 8909D70AREM COMMENT "ExactAudioCopy v1.3"CATALOG 0000000000000PERFORMER "Cusco"TITLE "Cusco 2000"FILE "Cusco - Cusco 2000.flac" WAVE  TRACK 01 AUDIO    TITLE "Islands of the Galapagos"    PERFORMER "Cusco"    INDEX 01 00:00:00  TRACK 02 AUDIO    TITLE "South America"    PERFORMER "Cusco"    INDEX 00 03:53:23    INDEX 01 03:55:22  TRACK 03 AUDIO    TITLE "North Easter"    PERFORMER "Cusco"    INDEX 00 07:22:10    INDEX 01 07:24:09  TRACK 04 AUDIO    TITLE "Rift Valley"    PERFORMER "Cusco"    INDEX 00 11:11:57    INDEX 01 11:13:56  TRACK 05 AUDIO    TITLE "Dark Fascination"    PERFORMER "Cusco"    INDEX 00 16:07:44    INDEX 01 16:09:43  TRACK 06 AUDIO    TITLE "Canada - Last Paradise"    PERFORMER "Cusco"    INDEX 00 19:51:18    INDEX 01 19:53:17  TRACK 07 AUDIO    TITLE "Serengeti"    PERFORMER "Cusco"    INDEX 00 24:43:58    INDEX 01 24:45:57  TRACK 08 AUDIO    TITLE "Rhythm of the Wilderness"    PERFORMER "Cusco"    INDEX 00 28:07:37    INDEX 01 28:09:36  TRACK 09 AUDIO    TITLE "Africa - Afrika"    PERFORMER "Cusco"    INDEX 00 32:28:69    INDEX 01 32:30:68  TRACK 10 AUDIO    TITLE "Flying Condor"    PERFORMER "Cusco"    INDEX 00 36:36:31    INDEX 01 36:38:30

Cusco And The Philharmonic Orchestra - Australia 1993 (00:50:09)

Cusco And The Philharmonic Orchestra - Australia 1993Label:Landy Star Music - LS-2483
Format:CD, Album
Country:Russia
Released:1993
Style:New Age, DowntempoTracklist:01. Australia 6:17
02. Unknown Paradise 3:52
03. Ancient People 4:25
04. Seaplanet 3:48
05. Didgeridoo 3:37
06. Flying Condor 5:24
07. Highland 5:05
08. North Eastern 3:48
09. From A Higher Point 5:18
10. Earth Waltz 3:16
11. Magic Forest 4:48

Log

Exact Audio Copy V1.3 from 2. September 2016Отчёт EAC об извлечении, выполненном 9. июня 2019, 17:01Cusco / Cusco And The Philharmonic Orchestra - AustraliaДисковод: SONY    CD-RW  CRX230ED   Adapter: 1  ID: 1Режим чтения                 : ДостоверностьИспользование точного потока : ДаОтключение кэша аудио        : ДаИспользование указателей C2  : НетКоррекция смещения при чтении                     : 6Способность читать области Lead-in и Lead-out     : НетЗаполнение пропущенных сэмплов тишиной            : ДаУдаление блоков с тишиной в начале и конце        : НетПри вычислениях CRC использовались нулевые сэмплы : ДаИнтерфейс                                         : Встроенный Win32-интерфейс для Win NT/2000Выходной формат : Внутренние WAV-операцииФормат сэмплов  : 44.100 Гц; 16 бит; стереоTOC извлечённого CD     Трек |   Старт  | Длительность | Начальный сектор | Конечный сектор    ---------------------------------------------------------------------       1  |  0:00.00 |    6:18.37   |           0      |      28386       2  |  6:18.37 |    3:56.50   |       28387      |      46136       3  | 10:15.12 |    4:28.25   |       46137      |      66261       4  | 14:43.37 |    3:50.53   |       66262      |      83564       5  | 18:34.15 |    3:40.57   |       83565      |     100121       6  | 22:14.72 |    5:28.60   |      100122      |     124781       7  | 27:43.57 |    5:07.08   |      124782      |     147814       8  | 32:50.65 |    3:52.32   |      147815      |     165246       9  | 36:43.22 |    5:19.45   |      165247      |     189216      10  | 42:02.67 |    3:18.08   |      189217      |     204074      11  | 45:21.00 |    4:48.05   |      204075      |     225679Характеристики диапазона извлечения и сообщения об ошибкахВыбранный диапазон     Имя файла C:\Users\Serg22\Documents\08. Cusco - Cusco And The Philharmonic Orchestra - Australia 1993\Cusco - Cusco And The Philharmonic Orchestra - Australia.wav     Пиковый уровень 93.5 %     Скорость извлечения 8.1 X     Качество диапазона 100.0 %     CRC теста D8FEA7CD     CRC копии D8FEA7CD     Копирование... OKОшибок не произошлоAccurateRip: сводкаТрек  1  : извлечено точно (доверие 2)  [F19CEE16]  (AR v1)Трек  2  : извлечено точно (доверие 2)  [13F11FEF]  (AR v1)Трек  3  : извлечено точно (доверие 2)  [C0389509]  (AR v1)Трек  4  : извлечено точно (доверие 2)  [D95C883B]  (AR v1)Трек  5  : извлечено точно (доверие 2)  [55B6E64F]  (AR v1)Трек  6  : извлечено точно (доверие 2)  [45857D56]  (AR v1)Трек  7  : извлечено точно (доверие 2)  [35304BAC]  (AR v1)Трек  8  : извлечено точно (доверие 2)  [88D82166]  (AR v1)Трек  9  : извлечено точно (доверие 2)  [2A6E58CD]  (AR v1)Трек 10  : извлечено точно (доверие 2)  [5A06ABF8]  (AR v1)Трек 11  : извлечено точно (доверие 2)  [33CF5B32]  (AR v1)Все треки извлечены точноКонец отчёта==== Контрольная сумма отчёта 59A979F1D274F0360172E635D0B8959CCD9734B8D471CDEC67CB2B34ADED1D77 ====

Cue

REM GENRE "New Age"REM DATE 1993REM DISCID 8F0BC10BREM COMMENT "ExactAudioCopy v1.3"CATALOG 0000000000000PERFORMER "Cusco"TITLE "Cusco And The Philharmonic Orchestra - Australia"FILE "Cusco - Cusco And The Philharmonic Orchestra - Australia.flac" WAVE  TRACK 01 AUDIO    TITLE "Australia"    PERFORMER "Cusco"    INDEX 01 00:00:00  TRACK 02 AUDIO    TITLE "Unknown Paradise"    PERFORMER "Cusco"    INDEX 00 06:15:32    INDEX 01 06:18:37  TRACK 03 AUDIO    TITLE "Ancient People"    PERFORMER "Cusco"    INDEX 00 10:12:47    INDEX 01 10:15:12  TRACK 04 AUDIO    TITLE "Seaplanet"    PERFORMER "Cusco"    INDEX 00 14:42:02    INDEX 01 14:43:37  TRACK 05 AUDIO    TITLE "Didgeridoo"    PERFORMER "Cusco"    INDEX 00 18:32:35    INDEX 01 18:34:15  TRACK 06 AUDIO    TITLE "Flying Condor"    PERFORMER "Cusco"    INDEX 00 22:13:45    INDEX 01 22:14:72  TRACK 07 AUDIO    TITLE "Highland"    PERFORMER "Cusco"    INDEX 00 27:40:40    INDEX 01 27:43:57  TRACK 08 AUDIO    TITLE "North Eastern"    PERFORMER "Cusco"    INDEX 00 32:49:17    INDEX 01 32:50:65  TRACK 09 AUDIO    TITLE "From A Higher Point"    PERFORMER "Cusco"    INDEX 00 36:40:42    INDEX 01 36:43:22  TRACK 10 AUDIO    TITLE "Earth Waltz"    PERFORMER "Cusco"    INDEX 01 42:02:67  TRACK 11 AUDIO    TITLE "Magic Forest"    PERFORMER "Cusco"    INDEX 00 45:18:65    INDEX 01 45:21:00

Cusco - Apurimac II - Return To Ancient America 1994 (00:52:48)

Cusco - Apurimac II - Return To Ancient America 1994Label:Music Planet Series
Format:CD, Album
Country:Russia
Released:1994
Style:New Age, DowntempoTracklist:01. Montezuma 5:16
02. Quetzal's Feather 5:00
03. Dance Of The Sun Priest 5:10
04. Tula 5:02
05. Yucatan 5:20
06. Xul-Kan, King Of Palenque 3:58
07. Maya Temple 4:12
08. Mexica 5:17
09. Goddess Of The Moon 4:15
10. Temple Of Rememberance 9:11

Log

Exact Audio Copy V1.3 from 2. September 2016Отчёт EAC об извлечении, выполненном 9. июня 2019, 18:01Cusco / Apurimac IIДисковод: SONY    CD-RW  CRX230ED   Adapter: 1  ID: 1Режим чтения                 : ДостоверностьИспользование точного потока : ДаОтключение кэша аудио        : ДаИспользование указателей C2  : НетКоррекция смещения при чтении                     : 6Способность читать области Lead-in и Lead-out     : НетЗаполнение пропущенных сэмплов тишиной            : ДаУдаление блоков с тишиной в начале и конце        : НетПри вычислениях CRC использовались нулевые сэмплы : ДаИнтерфейс                                         : Встроенный Win32-интерфейс для Win NT/2000Выходной формат : Внутренние WAV-операцииФормат сэмплов  : 44.100 Гц; 16 бит; стереоTOC извлечённого CD     Трек |   Старт  | Длительность | Начальный сектор | Конечный сектор    ---------------------------------------------------------------------       1  |  0:00.00 |    5:16.56   |           0      |      23755       2  |  5:16.56 |    5:01.02   |       23756      |      46332       3  | 10:17.58 |    5:10.44   |       46333      |      69626       4  | 15:28.27 |    5:03.16   |       69627      |      92367       5  | 20:31.43 |    5:20.69   |       92368      |     116436       6  | 25:52.37 |    3:59.29   |      116437      |     134390       7  | 29:51.66 |    4:12.44   |      134391      |     153334       8  | 34:04.35 |    5:18.24   |      153335      |     177208       9  | 39:22.59 |    4:15.44   |      177209      |     196377      10  | 43:38.28 |    9:09.65   |      196378      |     237617Характеристики диапазона извлечения и сообщения об ошибкахВыбранный диапазон     Имя файла C:\Users\Serg22\Documents\11. Cusco - Apurimac II 1994\Cusco - Apurimac II.wav     Пиковый уровень 98.4 %     Скорость извлечения 8.0 X     Качество диапазона 99.9 %     CRC теста 4A20FA6C     CRC копии 4A20FA6C     Копирование... OKОшибок не произошлоAccurateRip: сводкаТрек  1  : извлечено точно (доверие 3)  [80A861D3]  (AR v1)Трек  2  : извлечено точно (доверие 3)  [ACA9CEBF]  (AR v1)Трек  3  : извлечено точно (доверие 3)  [D5B561B9]  (AR v1)Трек  4  : извлечено точно (доверие 3)  [8ADD5F47]  (AR v1)Трек  5  : извлечено точно (доверие 3)  [84DC1EFA]  (AR v1)Трек  6  : извлечено точно (доверие 3)  [CAC98E88]  (AR v1)Трек  7  : извлечено точно (доверие 3)  [83C4F49E]  (AR v1)Трек  8  : извлечено точно (доверие 3)  [3FEB18AC]  (AR v1)Трек  9  : извлечено точно (доверие 3)  [063C4A39]  (AR v1)Трек 10  : извлечено точно (доверие 3)  [920F33E0]  (AR v1)Все треки извлечены точноКонец отчёта==== Контрольная сумма отчёта 240697C7A06B45720A7A74C75697BC8A00BA184832589351E9E47B7B03E49BE9 ====

Cue

REM GENRE "New Age"REM DATE 1994REM DISCID 7B0C600AREM COMMENT "ExactAudioCopy v1.3"PERFORMER "Cusco"TITLE "Apurimac II"FILE "Cusco - Apurimac II.flac" WAVE  TRACK 01 AUDIO    TITLE "Montezuma"    PERFORMER "Cusco"    INDEX 01 00:00:00  TRACK 02 AUDIO    TITLE "Quetzal's Feather"    PERFORMER "Cusco"    INDEX 00 05:15:58    INDEX 01 05:16:56  TRACK 03 AUDIO    TITLE "Dance of the Sun Priest"    PERFORMER "Cusco"    INDEX 00 10:16:60    INDEX 01 10:17:58  TRACK 04 AUDIO    TITLE "Tula"    PERFORMER "Cusco"    INDEX 00 15:27:29    INDEX 01 15:28:27  TRACK 05 AUDIO    TITLE "Yucatan"    PERFORMER "Cusco"    INDEX 00 20:30:44    INDEX 01 20:31:43  TRACK 06 AUDIO    TITLE "Xul-Kan, King of Palenque"    PERFORMER "Cusco"    INDEX 00 25:51:38    INDEX 01 25:52:37  TRACK 07 AUDIO    TITLE "Maya Temple"    PERFORMER "Cusco"    INDEX 00 29:50:68    INDEX 01 29:51:66  TRACK 08 AUDIO    TITLE "Mexica"    PERFORMER "Cusco"    INDEX 00 34:03:36    INDEX 01 34:04:35  TRACK 09 AUDIO    TITLE "Goddess of the Moon"    PERFORMER "Cusco"    INDEX 00 39:21:60    INDEX 01 39:22:59  TRACK 10 AUDIO    TITLE "Temple of Remembrance"    PERFORMER "Cusco"    INDEX 00 43:37:29    INDEX 01 43:38:28
[spo

To download the content you need:
1. Download and install torrent client [for Windows] or for mobile system
2. Click on [Download]
Attention.
If the test YOU are NOT a ROBOT - does not work, then You are using an outdated browser.
Install the current browser and click on [Download]
Security: torrent client is allowed by Kaspersky.

[asmlocator.ru].t648160.torrent 
Torrent: Registered [ 2019-07-03 05:05 ] · 28FE50EB3A4B0E54707419D07FD114A3713648DA

Download .torrent

Download

23 KB

Status: checked
Completed: 0 times
Size: 2.81 GB
terms.php
[Profile] [PM]
Display posts:    
Reply to topic

Current time is: 18-Jul 05:46

All times are UTC ± 0



You cannot post new topics in this forum
You cannot reply to topics in this forum
You cannot edit your posts in this forum
You cannot delete your posts in this forum
You cannot vote in polls in this forum
You cannot attach files in this forum
You can download files in this forum