(Classical) Beethoven - Piano Sonatas No.3, No.14 \'Moonlight\', No.23 \'Appassionata\', No.26 \'Les Adieux\', No.32; 32 Variations in C minor - Евгений Кисин (Kissin) - 2017, FLAC (image+.cue) lossless

Reply to topic
DL-List and Torrent activity
Size:  458 MB   |    Registered:  16 days   |    Completed:  0 times

Seeder not seen: Never

 
   
 
 
Author Message

star21 ®

Gender: Female

Longevity: 3 years 8 months

Posts: 552042

Location: Екатеринбург

Post 01-Jul-2019 22:05

[Quote]

Beethoven - Piano Sonatas No.3, No.14 'Moonlight', No.23 'Appassionata', No.26 'Les Adieux', No.32; 32 Variations in C minor - Евгений Кисин Жанр: Classical
Страна-производитель диска: Germany
Год издания диска: 2017
Издатель (лейбл): Deutsche Grammophon
Дата записи: 2006-2016
Аудиокодек: FLAC
Тип рипа: image+.cue
Битрейт аудио: lossless
Продолжительность: 2:08:54
Источник: собственный рип
Наличие сканов в содержимом раздачи: даТреклист:Ludwig van BeethovenCD1
[1]-[4] Piano Sonata No. 3 in C major, Op.2/3 (1795)
[5]-[37] 32 Piano Variations on an Original Theme C minor, WoO 80 (1807)
[38]-[40] Piano Sonata No. 14 in C sharp minor “Moonlight”, Op.27/2 (1801)CD2
[1]-[3] Piano Sonata No. 23 in F minor “Appassionata”, Op.57 (1805)
[4]-[6] Piano Sonata No. 26 in E flat major “Les Adieux”, Op.81a (1810)
[7]-[8] Piano Sonata No. 32 in C minor, Op.111 (1822)Исполнители:
Evgeny Kissin piano

Лог создания рипа: CD1

Exact Audio Copy V1.3 from 2. September 2016EAC extraction logfile from 3. July 2018, 21:17Evgeny Kissin / Beethoven - Piano Sonatas Nos. 3 & 14; 32 VariationsUsed drive  : PLDS    DVD-RW DU8A6SH   Adapter: 1  ID: 0Read mode               : SecureUtilize accurate stream : YesDefeat audio cache      : YesMake use of C2 pointers : NoRead offset correction                      : 6Overread into Lead-In and Lead-Out          : NoFill up missing offset samples with silence : YesDelete leading and trailing silent blocks   : NoNull samples used in CRC calculations       : YesUsed interface                              : Native Win32 interface for Win NT & 2000Used output format              : User Defined EncoderSelected bitrate                : 128 kBit/sQuality                         : HighAdd ID3 tag                     : NoCommand line compressor         : C:\Program Files (x86)\Exact Audio Copy\Flac\flac.exeAdditional command line options : -V -8 -T "Date=%year%" -T "Genre=%genre%" %source%TOC of the extracted CD     Track |   Start  |  Length  | Start sector | End sector    ---------------------------------------------------------        1  |  0:00.00 | 10:34.22 |         0    |    47571        2  | 10:34.22 |  8:20.11 |     47572    |    85082        3  | 18:54.33 |  3:05.57 |     85083    |    99014        4  | 22:00.15 |  5:15.01 |     99015    |   122640        5  | 27:15.16 |  0:18.06 |    122641    |   123996        6  | 27:33.22 |  0:11.11 |    123997    |   124832        7  | 27:44.33 |  0:11.17 |    124833    |   125674        8  | 27:55.50 |  0:11.43 |    125675    |   126542        9  | 28:07.18 |  0:12.25 |    126543    |   127467       10  | 28:19.43 |  0:24.33 |    127468    |   129300       11  | 28:44.01 |  0:11.18 |    129301    |   130143       12  | 28:55.19 |  0:25.18 |    130144    |   132036       13  | 29:20.37 |  0:23.53 |    132037    |   133814       14  | 29:44.15 |  0:34.33 |    133815    |   136397       15  | 30:18.48 |  0:16.49 |    136398    |   137646       16  | 30:35.22 |  0:18.13 |    137647    |   139009       17  | 30:53.35 |  0:27.74 |    139010    |   141108       18  | 31:21.34 |  0:21.18 |    141109    |   142701       19  | 31:42.52 |  0:21.17 |    142702    |   144293       20  | 32:03.69 |  0:30.43 |    144294    |   146586       21  | 32:34.37 |  0:30.34 |    146587    |   148870       22  | 33:04.71 |  0:32.47 |    148871    |   151317       23  | 33:37.43 |  0:18.54 |    151318    |   152721       24  | 33:56.22 |  0:13.48 |    152722    |   153744       25  | 34:09.70 |  0:13.43 |    153745    |   154762       26  | 34:23.38 |  0:13.54 |    154763    |   155791       27  | 34:37.17 |  0:17.21 |    155792    |   157087       28  | 34:54.38 |  0:32.29 |    157088    |   159516       29  | 35:26.67 |  0:09.61 |    159517    |   160252       30  | 35:36.53 |  0:12.47 |    160253    |   161199       31  | 35:49.25 |  0:11.67 |    161200    |   162091       32  | 36:01.17 |  0:13.30 |    162092    |   163096       33  | 36:14.47 |  0:17.59 |    163097    |   164430       34  | 36:32.31 |  0:12.69 |    164431    |   165399       35  | 36:45.25 |  0:32.21 |    165400    |   167820       36  | 37:17.46 |  0:26.20 |    167821    |   169790       37  | 37:43.66 |  2:04.01 |    169791    |   179091       38  | 39:47.67 |  6:40.61 |    179092    |   209152       39  | 46:28.53 |  2:10.69 |    209153    |   218971       40  | 48:39.47 |  7:12.15 |    218972    |   251386Range status and errorsSelected range     Filename C:\temp\Beethoven - Piano Sonatas Nos. 3, 14, 23, 26, 32 - Kissin\CD1\Beethoven - Piano Sonatas Nos. 3 & 14; 32 Variations.wav     Peak level 94.0 %     Extraction speed 3.6 X     Range quality 100.0 %     Test CRC 586BA613     Copy CRC 586BA613     Copy OKNo errors occurredAccurateRip summaryTrack  1  accurately ripped (confidence 15)  [8D28B322]  (AR v2)Track  2  accurately ripped (confidence 15)  [BCCA5747]  (AR v2)Track  3  accurately ripped (confidence 15)  [EAE13477]  (AR v2)Track  4  accurately ripped (confidence 15)  [E555EA6A]  (AR v2)Track  5  accurately ripped (confidence 15)  [061BF33D]  (AR v2)Track  6  accurately ripped (confidence 15)  [770FA26A]  (AR v2)Track  7  accurately ripped (confidence 15)  [42860268]  (AR v2)Track  8  accurately ripped (confidence 15)  [0FD181CB]  (AR v2)Track  9  accurately ripped (confidence 15)  [6EFB889D]  (AR v2)Track 10  accurately ripped (confidence 15)  [C2629D61]  (AR v2)Track 11  accurately ripped (confidence 15)  [4ADD7F6F]  (AR v2)Track 12  accurately ripped (confidence 15)  [87D74434]  (AR v2)Track 13  accurately ripped (confidence 15)  [76167D0E]  (AR v2)Track 14  accurately ripped (confidence 15)  [19915C3C]  (AR v2)Track 15  accurately ripped (confidence 15)  [C2F84287]  (AR v2)Track 16  accurately ripped (confidence 15)  [2FABFF47]  (AR v2)Track 17  accurately ripped (confidence 15)  [FBCAC3A0]  (AR v2)Track 18  accurately ripped (confidence 15)  [E23C8CAB]  (AR v2)Track 19  accurately ripped (confidence 15)  [9A8537D9]  (AR v2)Track 20  accurately ripped (confidence 15)  [39773246]  (AR v2)Track 21  accurately ripped (confidence 15)  [6ED19F7A]  (AR v2)Track 22  accurately ripped (confidence 15)  [064E558B]  (AR v2)Track 23  accurately ripped (confidence 15)  [0D208104]  (AR v2)Track 24  accurately ripped (confidence 15)  [068083A4]  (AR v2)Track 25  accurately ripped (confidence 15)  [662E0EB4]  (AR v2)Track 26  accurately ripped (confidence 15)  [D9619556]  (AR v2)Track 27  accurately ripped (confidence 15)  [C68AA3FB]  (AR v2)Track 28  accurately ripped (confidence 15)  [188869AD]  (AR v2)Track 29  accurately ripped (confidence 15)  [B05D0D23]  (AR v2)Track 30  accurately ripped (confidence 15)  [CB193419]  (AR v2)Track 31  accurately ripped (confidence 15)  [2E848204]  (AR v2)Track 32  accurately ripped (confidence 15)  [6C5D1CEE]  (AR v2)Track 33  accurately ripped (confidence 15)  [35AD47FF]  (AR v2)Track 34  accurately ripped (confidence 15)  [31E02772]  (AR v2)Track 35  accurately ripped (confidence 15)  [3C03EA72]  (AR v2)Track 36  accurately ripped (confidence 15)  [6905D735]  (AR v2)Track 37  accurately ripped (confidence 15)  [89D707A8]  (AR v2)Track 38  accurately ripped (confidence 15)  [1C5C9C00]  (AR v2)Track 39  accurately ripped (confidence 15)  [86119F3A]  (AR v2)Track 40  accurately ripped (confidence 15)  [D54BCFC4]  (AR v2)All tracks accurately rippedEnd of status report==== Log checksum 9A01E2D494BC4F55B5FEFC0799C98007D7C0E4393126433AE8F189A2CAA2CD87 ====

Лог создания рипа: CD2

Exact Audio Copy V1.3 from 2. September 2016EAC extraction logfile from 3. July 2018, 22:12Evgeny Kissin / Beethoven - Piano Sonatas Nos. 23, 26 & 32Used drive  : PLDS    DVD-RW DU8A6SH   Adapter: 1  ID: 0Read mode               : SecureUtilize accurate stream : YesDefeat audio cache      : YesMake use of C2 pointers : NoRead offset correction                      : 6Overread into Lead-In and Lead-Out          : NoFill up missing offset samples with silence : YesDelete leading and trailing silent blocks   : NoNull samples used in CRC calculations       : YesUsed interface                              : Native Win32 interface for Win NT & 2000Used output format              : User Defined EncoderSelected bitrate                : 128 kBit/sQuality                         : HighAdd ID3 tag                     : NoCommand line compressor         : C:\Program Files (x86)\Exact Audio Copy\Flac\flac.exeAdditional command line options : -V -8 -T "Date=%year%" -T "Genre=%genre%" %source%TOC of the extracted CD     Track |   Start  |  Length  | Start sector | End sector    ---------------------------------------------------------        1  |  0:00.00 | 11:09.68 |         0    |    50242        2  | 11:09.68 |  7:18.06 |     50243    |    83098        3  | 18:27.74 |  8:08.70 |     83099    |   119768        4  | 26:36.69 |  7:11.03 |    119769    |   152096        5  | 33:47.72 |  4:29.36 |    152097    |   172307        6  | 38:17.33 |  6:12.55 |    172308    |   200262        7  | 44:30.13 |  8:34.73 |    200263    |   238885        8  | 53:05.11 | 20:22.52 |    238886    |   330587Range status and errorsSelected range     Filename C:\temp\Beethoven - Piano Sonatas Nos. 3, 14, 23, 26, 32 - Kissin\CD2\Beethoven - Piano Sonatas Nos. 23, 26 & 32.wav     Peak level 95.4 %     Extraction speed 4.3 X     Range quality 100.0 %     Test CRC AE8E2235     Copy CRC AE8E2235     Copy OKNo errors occurredAccurateRip summaryTrack  1  accurately ripped (confidence 14)  [C8439C1F]  (AR v2)Track  2  accurately ripped (confidence 14)  [F78875C5]  (AR v2)Track  3  accurately ripped (confidence 14)  [E2458C2B]  (AR v2)Track  4  accurately ripped (confidence 14)  [8AA0D3BA]  (AR v2)Track  5  accurately ripped (confidence 14)  [4EDA6A6C]  (AR v2)Track  6  accurately ripped (confidence 14)  [94288A7A]  (AR v2)Track  7  accurately ripped (confidence 14)  [34F04549]  (AR v2)Track  8  accurately ripped (confidence 14)  [140BC589]  (AR v2)All tracks accurately rippedEnd of status report==== Log checksum 81FE6A976D1E7C323067F45854A557D6DE5630D83140B40B5185A79682BCA8B7 ====

To download the content you need:
1. Download and install torrent client [for Windows] or for mobile system
2. Click on [Download]
Attention.
If the test YOU are NOT a ROBOT - does not work, then You are using an outdated browser.
Install the current browser and click on [Download]
Security: torrent client is allowed by Kaspersky.

[asmlocator.ru].t648052.torrent 
Torrent: Registered [ 2019-07-01 22:05 ] · 8EB31579803D27972FB638498BD0BF046C1B70B2

Download .torrent

Download

38 KB

Status: checked
Completed: 0 times
Size: 458 MB
terms.php
[Profile] [PM]
Display posts:    
Reply to topic

Current time is: 18-Jul 05:47

All times are UTC ± 0



You cannot post new topics in this forum
You cannot reply to topics in this forum
You cannot edit your posts in this forum
You cannot delete your posts in this forum
You cannot vote in polls in this forum
You cannot attach files in this forum
You can download files in this forum