(Indian Classical Music / Ghazal) [CD] Shreya Ghoshal - Humnasheen - 2014, FLAC (tracks+.cue), lossless

Ответить на тему
Статистика раздачи
Размер:  314 MB   |    Зарегистрирован:  5 месяцев 4 дня   |    Скачан:  3 раза

Полного источника не было: 57 минут

 
   
 
 
Автор Сообщение

star21 ®

Пол: Женский

Стаж: 4 года 1 месяц

Сообщений: 551946

Откуда: Екатеринбург

Создавать темы 01-Июл-2019 09:40

[Цитировать]

Shreya Ghoshal / Humnasheen Жанр: Indian Classical Music / Ghazal
Носитель: CD
Страна-производитель диска (релиза): India
Год издания: 2014
Издатель (лейбл): Times Music
Аудиокодек: FLAC (*.flac)
Тип рипа: tracks+.cue
Продолжительность: 00:51:38
Источник (релизер): Diya Rai
Наличие сканов в содержимом раздачи: нетТреклист:
01. Ye Aasmaan
02. Naam Likh Kar
03. Yeh Dil Jo Pyarka
04. Raaton Ko
05. Maahi Rokna Aaj - Geet
06. Teri Talash
07. Shamaa Jalti Rahi - Nazam
08. Kuchh Rishtey

Лог создания рипа

Exact Audio Copy V1.3 from 2. September 2016Отчёт EAC об извлечении, выполненном 9. июня 2019, 9:33Shreya Ghoshal / HumnasheenДисковод: Optiarc DVD RW AD-5260S   Adapter: 1  ID: 0Режим чтения                 : ДостоверностьИспользование точного потока : ДаОтключение кэша аудио        : ДаИспользование указателей C2  : НетКоррекция смещения при чтении                     : 48Способность читать области Lead-in и Lead-out     : НетЗаполнение пропущенных сэмплов тишиной            : ДаУдаление блоков с тишиной в начале и конце        : НетПри вычислениях CRC использовались нулевые сэмплы : ДаИнтерфейс                                         : Встроенный Win32-интерфейс для Win NT/2000Обработка зазоров                                 : Добавлено к предыдущему трекуВыходной формат          : Пользовательский кодировщикВыбранный битрейт        : 128 kBit/sКачество                 : ВысокийДобавление ID3-тега      : НетУтилита сжатия           : C:\Program Files (x86)\Exact Audio Copy\Flac\flac.exeДополнительные параметры : -V -8 -T "Genre=%genre%" -T "Artist=%artist%" -T "Title=%title%" -T "Album=%albumtitle%" -T "Date=%year%" -T "Tracknumber=%tracknr%" -T "Comment=%comment%" %source%TOC извлечённого CD     Трек |   Старт  | Длительность | Начальный сектор | Конечный сектор    ---------------------------------------------------------------------       1  |  0:00.00 |    7:27.48   |           0      |      33572       2  |  7:27.48 |    5:37.71   |       33573      |      58918       3  | 13:05.44 |    6:33.71   |       58919      |      88464       4  | 19:39.40 |    6:46.11   |       88465      |     118925       5  | 26:25.51 |    7:39.52   |      118926      |     153402       6  | 34:05.28 |    6:19.39   |      153403      |     181866       7  | 40:24.67 |    5:39.60   |      181867      |     207351       8  | 46:04.52 |    5:33.06   |      207352      |     232332Трек  1     Имя файла C:\Program Files (x86)\Exact Audio Copy\Flac\01. Ye Aasmaan.wav     Длина предзазора  0:00:02.00     Пиковый уровень 98.1 %     Скорость извлечения 2.6 X     Качество трека 100.0 %     CRC теста 4FBCFC27     CRC копии 4FBCFC27     Точное извлечение (достоверность 1)  [F9AF7B47]  (AR v2)     Копирование... OKТрек  2     Имя файла C:\Program Files (x86)\Exact Audio Copy\Flac\02. Naam Likh Kar.wav     Пиковый уровень 97.0 %     Скорость извлечения 2.7 X     Качество трека 99.9 %     CRC теста 46C0120E     CRC копии 46C0120E     Точное извлечение (достоверность 1)  [B3DC5247]  (AR v2)     Копирование... OKТрек  3     Имя файла C:\Program Files (x86)\Exact Audio Copy\Flac\03. Yeh Dil Jo Pyarka.wav     Пиковый уровень 97.0 %     Скорость извлечения 3.3 X     Качество трека 100.0 %     CRC теста AC4C50CF     CRC копии AC4C50CF     Точное извлечение (достоверность 1)  [11ADF00C]  (AR v2)     Копирование... OKТрек  4     Имя файла C:\Program Files (x86)\Exact Audio Copy\Flac\04. Raaton Ko.wav     Пиковый уровень 97.6 %     Скорость извлечения 3.7 X     Качество трека 100.0 %     CRC теста E85B6CBA     CRC копии E85B6CBA     Точное извлечение (достоверность 1)  [AF0279E3]  (AR v2)     Копирование... OKТрек  5     Имя файла C:\Program Files (x86)\Exact Audio Copy\Flac\05. Maahi Rokna Aaj - Geet.wav     Пиковый уровень 97.2 %     Скорость извлечения 4.0 X     Качество трека 100.0 %     CRC теста 97AF52EA     CRC копии 97AF52EA     Точное извлечение (достоверность 1)  [2483A061]  (AR v2)     Копирование... OKТрек  6     Имя файла C:\Program Files (x86)\Exact Audio Copy\Flac\06. Teri Talash.wav     Пиковый уровень 97.6 %     Скорость извлечения 4.3 X     Качество трека 100.0 %     CRC теста 7A4D11A6     CRC копии 7A4D11A6     Точное извлечение (достоверность 1)  [BAD3336F]  (AR v2)     Копирование... OKТрек  7     Имя файла C:\Program Files (x86)\Exact Audio Copy\Flac\07. Shamaa Jalti Rahi - Nazam.wav     Пиковый уровень 97.4 %     Скорость извлечения 4.5 X     Качество трека 100.0 %     CRC теста 427E9154     CRC копии 427E9154     Точное извлечение (достоверность 1)  [82BD7F87]  (AR v2)     Копирование... OKТрек  8     Имя файла C:\Program Files (x86)\Exact Audio Copy\Flac\08. Kuchh Rishtey.wav     Пиковый уровень 97.0 %     Скорость извлечения 4.6 X     Качество трека 100.0 %     CRC теста 017DAB27     CRC копии 017DAB27     Точное извлечение (достоверность 1)  [69B02716]  (AR v2)     Копирование... OKВсе треки извлечены точноОшибок не произошлоКонец отчёта==== Контрольная сумма отчёта 46615552E6538065C63E81E91581E33F812F6FC4E509C8877A31EE25705746F4 ====

Содержание индексной карты (.CUE)

REM GENRE "Indian Classical Music / Ghazal"REM DATE 2014REM DISCID 790C1908REM COMMENT "ExactAudioCopy v1.3"PERFORMER "Shreya Ghoshal"TITLE "Humnasheen"REM COMPOSER "Deepak Pandit"FILE "01. Ye Aasmaan.wav" WAVE  TRACK 01 AUDIO    TITLE "Ye Aasmaan"    PERFORMER "Shreya Ghoshal"    REM COMPOSER "Deepak Pandit"    ISRC INT131400019    INDEX 01 00:00:00FILE "02. Naam Likh Kar.wav" WAVE  TRACK 02 AUDIO    TITLE "Naam Likh Kar"    PERFORMER "Shreya Ghoshal"    REM COMPOSER "Deepak Pandit"    ISRC INT131400020    INDEX 01 00:00:00FILE "03. Yeh Dil Jo Pyarka.wav" WAVE  TRACK 03 AUDIO    TITLE "Yeh Dil Jo Pyarka"    PERFORMER "Shreya Ghoshal"    REM COMPOSER "Deepak Pandit"    ISRC INT131400021    INDEX 01 00:00:00FILE "04. Raaton Ko.wav" WAVE  TRACK 04 AUDIO    TITLE "Raaton Ko"    PERFORMER "Shreya Ghoshal"    REM COMPOSER "Deepak Pandit"    ISRC INT131400022    INDEX 01 00:00:00FILE "05. Maahi Rokna Aaj - Geet.wav" WAVE  TRACK 05 AUDIO    TITLE "Maahi Rokna Aaj - Geet"    PERFORMER "Shreya Ghoshal"    REM COMPOSER "Deepak Pandit"    ISRC INT131400023    INDEX 01 00:00:00FILE "06. Teri Talash.wav" WAVE  TRACK 06 AUDIO    TITLE "Teri Talash"    PERFORMER "Shreya Ghoshal"    REM COMPOSER "Deepak Pandit"    ISRC INT131400024    INDEX 01 00:00:00FILE "07. Shamaa Jalti Rahi - Nazam.wav" WAVE  TRACK 07 AUDIO    TITLE "Shamaa Jalti Rahi - Nazam"    PERFORMER "Shreya Ghoshal"    REM COMPOSER "Deepak Pandit"    ISRC INT131400025    INDEX 01 00:00:00FILE "08. Kuchh Rishtey.wav" WAVE  TRACK 08 AUDIO    TITLE "Kuchh Rishtey"    PERFORMER "Shreya Ghoshal"    REM COMPOSER "Deepak Pandit"    ISRC INT131400026    INDEX 01 00:00:00

Чтобы скачать этот контент, Вам необходимо:
1. Скачать и установить торрент-клиент [клик для Windows], (для мобильного найдите на Play Маркет).
2. Кликнуть по [Скачать]


Внимание.
Если проверка ВЫ НЕ РОБОТ - не работает, значит Вы используете устаревший браузер.
Установите актуальный браузер и повторно кликните по [Скачать]
Безопасность: торрент-клиент разрешён АВ Касперского.

[asmlocator.ru].t648035.torrent 
Торрент: Зарегистрирован [ 2019-07-01 09:40 ] · E19DD73C7F98CEC2444626906B3DD046A067EB3A

Скачать .torrent

Скачать

13 KB

Статус: проверено
Скачан: 3 раз
Размер: 314 MB
terms.php
[Профиль] [ЛС]
Показать сообщения:    
Ответить на тему

Текущее время: 06-Дек 06:57

Часовой пояс: UTC ± 0



Вы не можете начинать темы
Вы не можете отвечать на сообщения
Вы не можете редактировать свои сообщения
Вы не можете удалять свои сообщения
Вы не можете голосовать в опросах
Вы не можете прикреплять файлы к сообщениям
Вы можете скачивать файлы
Верим фактам, а не вранью Путина! Факт, что Правительство ведёт Россию к истреблению.
Так как численность населения падает, даже не смотря на приток эмигрантов!
Русская нация вымирает и вырождается, смешиваясь с эмигрантами!
Факт, что военных и граждан предприятий заставляют голосовать за партию Единая Россия и Путина
ПОД СТРАХОМ УВОЛЬНЕНИЯ!
Нам не нужно Правительство, блокирующее личную жизнь, интернет, нарушающее сохранность данных.
Все эти действия финансируются за счёт народа!