Призвание. Премия лучшим врачам России 2019.06.16 [2019, Документальный, HDTV 1080i]

Reply to topic
DL-List and Torrent activity
Size:  8.03 GB   |    Registered:  18 days   |    Completed:  0 times

Seeder not seen: Never

Leechers:  2  [  624 KB/s  ]   Show peers in full details
 
   
 
 
Author Message

star21 ®

Gender: Female

Longevity: 3 years 8 months

Posts: 552042

Location: Екатеринбург

Post 30-Jun-2019 02:25

[Quote]

Призвание. Премия лучшим врачам России 2019.06.16 Год выпуска: 2019
Страна: Россия
Жанр: Документальный
Продолжительность: 01:40:19
Перевод: Не требуется
Описание: В День медицинского работника 16 июня Первый канал представит телеверсию ежегодной церемонии вручения Национальной премии лучшим врачам России "Призвание". В этом году золотые статуэтки "Призвания" вручаются в двенадцатый раз. Более сорока новых имен пополнят список лауреатов премии. Премия проводится при поддержке и участии Министерства здравоохранения и социального развития России. Ведущие премии Елена Малышева и Александр Розенбаум: "У нас особое отношение к докторам. Мы выросли в медицинских семьях. Наши родители никогда не говорили нам высоких слов о медицине. Для них было нормальным делом выехать в больницу по срочному вызову, остаться у постели тяжелого больного на всю ночь, потом на весь день, и так, пока человеку не станет лучше. Беззаветная преданность делу и людям не считалась подвигом. Это просто была их жизнь и профессия, которую они любили и знали. Может быть, именно поэтому каждый год, когда мы выходим на сцену в наш профессиональный праздник, мы думаем о наших родителях. И по-детски гордимся тем, о каких докторах нам выпало счастье рассказывать. Для нас премия лучшим врачам России "Призвание" - это не только радость за наших коллег, но и возможность сказать спасибо своим близким людям, благодаря которым мы знаем, что такое призвание".Качество: HDTV
Разрешение видео/развертка: 1080i
Контейнер: TS
Видео кодек: H.264
Аудио кодек: AC3
Видео: H264; 1920x1080 (16:9); 25.000 fps; ~ 10.3 Mb/s
Аудио: AC3, 6 channels, 48000Hz, 384 Кбит/сек
Аудио 2: MP2, 2 channels, 48000Hz, 192 Кбит/сек

MediaInfo

GeneralID                             : 1 (0x1)Complete name                  : H:\Призвание. Премия лучшим врачам России 2019.06.16.tsFormat                         : MPEG-TSFile size                      : 8.03 GiBDuration                       : 1 h 40 minOverall bit rate mode          : VariableOverall bit rate               : 11.5 Mb/sVideoID                             : 1902 (0x76E)Menu ID                        : 92 (0x5C)Format                         : AVCFormat/Info                    : Advanced Video CodecFormat profile                 : High@L4Format settings                : CABAC / 3 Ref FramesFormat settings, CABAC         : YesFormat settings, Reference fra : 3 framesCodec ID                       : 27Duration                       : 1 h 40 minBit rate                       : 10.3 Mb/sWidth                          : 1 920 pixelsHeight                         : 1 080 pixelsDisplay aspect ratio           : 16:9Frame rate                     : 25.000 FPSStandard                       : ComponentColor space                    : YUVChroma subsampling             : 4:2:0Bit depth                      : 8 bitsScan type                      : InterlacedScan type, store method        : Separated fieldsScan order                     : Top Field FirstBits/(Pixel*Frame)             : 0.198Stream size                    : 7.20 GiB (90%)Color range                    : LimitedColor primaries                : BT.709Transfer characteristics       : BT.709Matrix coefficients            : BT.709Audio #1ID                             : 2902 (0xB56)Menu ID                        : 92 (0x5C)Format                         : AC-3Format/Info                    : Audio Coding 3Commercial name                : Dolby DigitalCodec ID                       : 6Duration                       : 1 h 40 minBit rate mode                  : ConstantBit rate                       : 384 kb/sChannel(s)                     : 6 channelsChannel layout                 : L R C LFE Ls RsSampling rate                  : 48.0 kHzFrame rate                     : 31.250 FPS (1536 SPF)Bit depth                      : 16 bitsCompression mode               : LossyStream size                    : 276 MiB (3%)Language                       : RussianService kind                   : Complete MainAudio #2ID                             : 2903 (0xB57)Menu ID                        : 92 (0x5C)Format                         : MPEG AudioFormat version                 : Version 1Format profile                 : Layer 2Codec ID                       : 3Duration                       : 1 h 40 minBit rate mode                  : ConstantBit rate                       : 224 kb/sChannel(s)                     : 2 channelsSampling rate                  : 48.0 kHzFrame rate                     : 41.667 FPS (1152 SPF)Compression mode               : LossyStream size                    : 161 MiB (2%)Language                       : RussianTextID                             : 2904 (0xB58)-888Menu ID                        : 92 (0x5C)Format                         : Teletext SubtitleLanguage                       : Russian

Скриншоты


To download the content you need:
1. Download and install torrent client [for Windows] or for mobile system
2. Click on [Download]
Attention.
If the test YOU are NOT a ROBOT - does not work, then You are using an outdated browser.
Install the current browser and click on [Download]
Security: torrent client is allowed by Kaspersky.

[asmlocator.ru].t647779.torrent 
Torrent: Registered [ 2019-06-30 02:25 ] · DA5E7456ED795B57396B62DF37C7EE81239116FD

Download .torrent

Download

21 KB

Status: checked
Completed: 0 times
Size: 8.03 GB
terms.php
[Profile] [PM]
Display posts:    
Reply to topic

Current time is: 18-Jul 05:46

All times are UTC ± 0



You cannot post new topics in this forum
You cannot reply to topics in this forum
You cannot edit your posts in this forum
You cannot delete your posts in this forum
You cannot vote in polls in this forum
You cannot attach files in this forum
You can download files in this forum