Положение обязывает / Noblesse oblige (Рао Хейдметс / Rao Heidmets) [1989, СССР, авторская анимация, VHSRip]

Reply to topic
DL-List and Torrent activity
Size:  125 MB   |    Registered:  18 days   |    Completed:  0 times

Seeder not seen: Never

 
   
 
 
Author Message

star21 ®

Gender: Female

Longevity: 3 years 8 months

Posts: 552042

Location: Екатеринбург

Post 30-Jun-2019 02:25

[Quote]

Положение обязывает / Noblesse obligeСтрана: СССР (Эстонская республика)
Жанр: авторская анимация
Год выпуска: 1989
Продолжительность: 00:09:39
Перевод: не требуется
Субтитры: нетРежиссёр: Рао Хейдметс / Rao HeidmetsКомпозитор: Олав Эхала / Olav EhalaОписание: Сюрреалистический кукольный фильм с сюжетом, раскрывающим монотонность и иллюзорность обособленного мира богатых снобов, основанного на эгоизме, который перерастает в обобщение бессильной и рушащейся цивилизации Европы.Качество видео: VHSRip
Формат видео: AVIВидео: 1608 kbps, 704х528 (4:3), 25.000 fps, MPEG-4 Visual (XviD)
Аудио: 192 kbps, 44.1 kHz, 2 channels, MPEG Audio (MP3)

MediaInfo

GeneralComplete name                            : Noblesse oblige (1989).aviFormat                                   : AVIFormat/Info                              : Audio Video InterleaveFile size                                : 125 MiBDuration                                 : 9mn 39sOverall bit rate                         : 1 813 KbpsWriting application                      : Lavf57.41.100Writing library                          : VirtualDub build 35491/releaseVideoID                                       : 0Format                                   : MPEG-4 VisualFormat profile                           : Simple@L5Format settings, BVOP                    : NoFormat settings, QPel                    : NoFormat settings, GMC                     : No warppointsFormat settings, Matrix                  : Default (H.263)Codec ID                                 : XVIDCodec ID/Hint                            : XviDDuration                                 : 9mn 39sBit rate                                 : 1 608 KbpsWidth                                    : 704 pixelsHeight                                   : 528 pixelsDisplay aspect ratio                     : 4:3Frame rate                               : 25.000 fpsColor space                              : YUVChroma subsampling                       : 4:2:0Bit depth                                : 8 bitsScan type                                : ProgressiveCompression mode                         : LossyBits/(Pixel*Frame)                       : 0.173Stream size                              : 111 MiB (89%)Writing library                          : XviD 73AudioID                                       : 1Format                                   : MPEG AudioFormat version                           : Version 1Format profile                           : Layer 3Mode                                     : Joint stereoMode extension                           : MS StereoCodec ID                                 : 55Codec ID/Hint                            : MP3Duration                                 : 9mn 39sBit rate mode                            : ConstantBit rate                                 : 192 KbpsChannel(s)                               : 2 channelsSampling rate                            : 44.1 KHzCompression mode                         : LossyStream size                              : 13.3 MiB (11%)Alignment                                : Aligned on interleavesInterleave, duration                     : 26 ms (0.65 video frame)Interleave, preload duration             : 522 msWriting library                          : LAME

Скриншот c названием фильма

Скриншоты


To download the content you need:
1. Download and install torrent client [for Windows] or for mobile system
2. Click on [Download]
Attention.
If the test YOU are NOT a ROBOT - does not work, then You are using an outdated browser.
Install the current browser and click on [Download]
Security: torrent client is allowed by Kaspersky.

[asmlocator.ru].t647765.torrent 
Torrent: Registered [ 2019-06-30 02:25 ] · 87254122152F541BC325DE06D965DCD621B8A7C5

Download .torrent

Download

20 KB

Status: checked
Completed: 0 times
Size: 125 MB
terms.php
[Profile] [PM]
Display posts:    
Reply to topic

Current time is: 18-Jul 05:43

All times are UTC ± 0



You cannot post new topics in this forum
You cannot reply to topics in this forum
You cannot edit your posts in this forum
You cannot delete your posts in this forum
You cannot vote in polls in this forum
You cannot attach files in this forum
You can download files in this forum