Положение обязывает / Noblesse oblige (Рао Хейдметс / Rao Heidmets) [1989, СССР, авторская анимация, VHSRip]

Ответить на тему
Статистика раздачи
Размер:  125 MB   |    Зарегистрирован:  3 месяца 18 дней   |    Скачан:  0 раз

Полного источника не было: 1 час 6 минут

 
   
 
 
Автор Сообщение

star21 ®

Пол: Женский

Стаж: 3 года 11 месяцев

Сообщений: 551988

Откуда: Екатеринбург

Создавать темы 30-Июн-2019 02:25

[Цитировать]

Положение обязывает / Noblesse obligeСтрана: СССР (Эстонская республика)
Жанр: авторская анимация
Год выпуска: 1989
Продолжительность: 00:09:39
Перевод: не требуется
Субтитры: нетРежиссёр: Рао Хейдметс / Rao HeidmetsКомпозитор: Олав Эхала / Olav EhalaОписание: Сюрреалистический кукольный фильм с сюжетом, раскрывающим монотонность и иллюзорность обособленного мира богатых снобов, основанного на эгоизме, который перерастает в обобщение бессильной и рушащейся цивилизации Европы.Качество видео: VHSRip
Формат видео: AVIВидео: 1608 kbps, 704х528 (4:3), 25.000 fps, MPEG-4 Visual (XviD)
Аудио: 192 kbps, 44.1 kHz, 2 channels, MPEG Audio (MP3)

MediaInfo

GeneralComplete name                            : Noblesse oblige (1989).aviFormat                                   : AVIFormat/Info                              : Audio Video InterleaveFile size                                : 125 MiBDuration                                 : 9mn 39sOverall bit rate                         : 1 813 KbpsWriting application                      : Lavf57.41.100Writing library                          : VirtualDub build 35491/releaseVideoID                                       : 0Format                                   : MPEG-4 VisualFormat profile                           : Simple@L5Format settings, BVOP                    : NoFormat settings, QPel                    : NoFormat settings, GMC                     : No warppointsFormat settings, Matrix                  : Default (H.263)Codec ID                                 : XVIDCodec ID/Hint                            : XviDDuration                                 : 9mn 39sBit rate                                 : 1 608 KbpsWidth                                    : 704 pixelsHeight                                   : 528 pixelsDisplay aspect ratio                     : 4:3Frame rate                               : 25.000 fpsColor space                              : YUVChroma subsampling                       : 4:2:0Bit depth                                : 8 bitsScan type                                : ProgressiveCompression mode                         : LossyBits/(Pixel*Frame)                       : 0.173Stream size                              : 111 MiB (89%)Writing library                          : XviD 73AudioID                                       : 1Format                                   : MPEG AudioFormat version                           : Version 1Format profile                           : Layer 3Mode                                     : Joint stereoMode extension                           : MS StereoCodec ID                                 : 55Codec ID/Hint                            : MP3Duration                                 : 9mn 39sBit rate mode                            : ConstantBit rate                                 : 192 KbpsChannel(s)                               : 2 channelsSampling rate                            : 44.1 KHzCompression mode                         : LossyStream size                              : 13.3 MiB (11%)Alignment                                : Aligned on interleavesInterleave, duration                     : 26 ms (0.65 video frame)Interleave, preload duration             : 522 msWriting library                          : LAME

Скриншот c названием фильма

Скриншоты

Чтобы скачать этот контент, Вам необходимо:
1. Скачать и установить торрент-клиент [клик для Windows], (для мобильного найдите на Play Маркет).
2. Кликнуть по [Скачать]


Внимание.
Если проверка ВЫ НЕ РОБОТ - не работает, значит Вы используете устаревший браузер.
Установите актуальный браузер и повторно кликните по [Скачать]
Безопасность: торрент-клиент разрешён АВ Касперского.

[asmlocator.ru].t647765.torrent 
Торрент: Зарегистрирован [ 2019-06-30 02:25 ] · 87254122152F541BC325DE06D965DCD621B8A7C5

Скачать .torrent

Скачать

20 KB

Статус: проверено
Скачан: 0 раз
Размер: 125 MB
terms.php
[Профиль] [ЛС]
Показать сообщения:    
Ответить на тему

Текущее время: 18-Окт 03:06

Часовой пояс: UTC ± 0



Вы не можете начинать темы
Вы не можете отвечать на сообщения
Вы не можете редактировать свои сообщения
Вы не можете удалять свои сообщения
Вы не можете голосовать в опросах
Вы не можете прикреплять файлы к сообщениям
Вы можете скачивать файлы
Верим фактам, а не вранью Путина! Факт, что Правительство ведёт Россию к истреблению.
Так как численность населения падает, даже не смотря на приток эмигрантов!
Русская нация вымирает и вырождается, смешиваясь с эмигрантами!
Факт, что военных и граждан предприятий заставляют голосовать за партию Единая Россия и Путина
ПОД СТРАХОМ УВОЛЬНЕНИЯ!
Нам не нужно Правительство, блокирующее личную жизнь, интернет, нарушающее сохранность данных.
Все эти действия финансируются за счёт народа!