На Париж (Сергей Саркисов) [2018, история, приключения, WEB-DLRip]

Reply to topic
DL-List and Torrent activity
Size:  1.46 GB   |    Registered:  19 days   |    Completed:  3 times

Seeder not seen: 41 minute

 
   
 
 
Author Message

star21 ®

Gender: Female

Longevity: 3 years 8 months

Posts: 552042

Location: Екатеринбург

Post 28-Jun-2019 07:00

[Quote]

На Париж Страна: Россия
Жанр: история, приключения
Год выпуска: 2018
Продолжительность: 01:35:18
Субтитры: нетРежиссер:
Сергей СаркисовВ ролях:
Дмитрий Певцов, Сергей Маковецкий, Рената Литвинова, Евгений Стычкин, Фёдор Добронравов, Максим Важов, Торнике Квитатиани, Игорь Золотовицкий, Кирилл Зайцев, Александр РапопортОписание:
История советских офицеров, плечом к плечу прошедших войну и решивших отпраздновать Великую Победу в Париже. Друзья, выдержавшие страшный путь войны, доходят до самого Берлина и берут курс на новую жизнь — на любовь, захватывающие приключения и город мечты Париж. Качество видео: WEB-DLRip
Формат видео: AVIВидео: 704x288 (2.44:1), 23.976 fps, XviD build 73 ~1801 kbps avg, 0.37 bit/pixel
Аудио: 48 kHz, AC3 Dolby Digital, 3/2 (L,C,R,l,r) + LFE ch, ~384 kbps - iTunes
Сэмпл

MediaInfo


Код:
Формат : AVI
Формат/Информация : Audio Video Interleave
Размер файла : 1,46 Гбайт
Продолжительность : 1 ч. 35 м.
Общий поток : 2195 Кбит/сек
Программа кодирования : VirtualDubMod 1.5.10.3 | www.virtualdub-fr.org || (build 2550/release)
Библиотека кодирования : VirtualDubMod build 2550/releaseВидео
Идентификатор : 0
Формат : MPEG-4 Visual
Профиль формата : Advanced Simple@L5
Настройки формата : BVOP1 / Custom Matrix
Параметр BVOP формата : 1
Параметр QPel формата : Нет
Параметр GMC формата : Без точки перехода
Параметр матрицы формата : Выборочная
Идентификатор кодека : XVID
Идентификатор кодека/Подсказка : XviD
Продолжительность : 1 ч. 35 м.
Битрейт : 1802 Кбит/сек
Ширина : 704 пикселя
Высота : 288 пикселей
Соотношение сторон : 2,40:1
Частота кадров : 23,976 (24000/1001) кадра/сек
Цветовое пространство : YUV
Субдискретизация насыщенности : 4:2:0
Битовая глубина : 8 бит
Тип развёртки : Прогрессивная
Метод сжатия : С потерями
Бит/(Пиксели*Кадры) : 0.371
Размер потока : 1,20 Гбайт (82%)
Библиотека кодирования : XviD 73Аудио
Идентификатор : 1
Формат : AC-3
Формат/Информация : Audio Coding 3
Коммерческое название : Dolby Digital
Идентификатор кодека : 2000
Продолжительность : 1 ч. 35 м.
Вид битрейта : Постоянный
Битрейт : 384 Кбит/сек
Каналы : 6 каналов
ChannelLayout : L R C LFE Ls Rs
Частота : 48,0 КГц
Частота кадров : 31,250 кадров/сек (1536 SPF)
Битовая глубина : 16 бит
Метод сжатия : С потерями
Размер потока : 262 Мбайт (17%)
Выравнивание : Разделение по промежуткам
Продолжительность промежутка : 42 мс. (1,00 видеокадр)
Время предзагрузки промежутка : 500 мс.
ServiceKind/String : Complete Main

Скриншоты



To download the content you need:
1. Download and install torrent client [for Windows] or for mobile system
2. Click on [Download]
Attention.
If the test YOU are NOT a ROBOT - does not work, then You are using an outdated browser.
Install the current browser and click on [Download]
Security: torrent client is allowed by Kaspersky.

[asmlocator.ru].t647588.torrent 
Torrent: Registered [ 2019-06-28 07:00 ] · C48F083A2E88DE39040EA7217C3BDD5D4BA524C5

Download .torrent

Download

15 KB

Status: checked
Completed: 3 times
Size: 1.46 GB
terms.php
[Profile] [PM]
Display posts:    
Reply to topic

Current time is: 18-Jul 05:46

All times are UTC ± 0



You cannot post new topics in this forum
You cannot reply to topics in this forum
You cannot edit your posts in this forum
You cannot delete your posts in this forum
You cannot vote in polls in this forum
You cannot attach files in this forum
You can download files in this forum