[Павел Лебедев, skillsup] Курс «Графический дизайн 360°» [2019, RUS]

Reply to topic
DL-List and Torrent activity
Size:  1.03 GB   |    Registered:  20 days   |    Completed:  6 times

Seeder not seen: 37 minutes

 
   
 
 
Author Message

star21 ®

Gender: Female

Longevity: 3 years 8 months

Posts: 552042

Location: Екатеринбург

Post 28-Jun-2019 00:40

[Quote]

Курс «Графический дизайн 360°» Год выпуска: 2019
Производитель: Skillsup
Сайт производителя: skillsup.ru
Автор: Павел Лебедев
Продолжительность: 3:26:10
Тип раздаваемого материала: Видеоурок
Язык: Русский
Описание: 8 ДИНАМИЧНЫХ ЛЕКЦИЙ БЕЗ ВОДЫ И СКУЧНОЙ ТЕОРИИ. ОКОЛО 250 ПРИМЕРОВ И РАЗЪЯСНЕНИЙ.
ЧЕК-ЛИСТЫ ДЛЯ СОЗДАНИЯ ПРОФЕССИОНАЛЬНЫХ ДИЗАЙН МАКЕТОВ.
УНИКАЛЬНЫЕ АВТОРСКИЕ ТЕХНИКИ И НАРАБОТКИ ЗА 15 ЛЕТ ПРАКТИКИ В ДИЗАЙНЕ.Что входит в курсЯ решил сделать такой курс, который поможет начинающим дизайнерам и не дизайнерам (менеджерам, разработчикам, программистам) разобраться в основах дизайна и знать, как это работает. На самом деле здесь нет никакой магии, все просто четко и понятно.
Курс состоит из небольших лекций с примерами и объяснениями, в каждом рассказывается одна тема. В результате вы будете знать, как отличить хороший дизайн от плохого и как создавать такие макеты, которые будут приносить пользу читателям, как работать со шрифтами, с модульными сетками, какие есть инструменты для создания дизайн макетов».Павел Лебедев
Автор курса и преподаватель, спикер на крупнейших конференциях по маркетингу и рекламе, более 15 лет в дизайне.

Содержание

Mediainfo

Полное имя                               : C:\Users\Desktop\[Павел Лебедев] Курс «Графический дизайн 360°» (2019)\1 Основы дизайна.mp4Формат                                   : MPEG-4Профиль формата                          : Base Media / Version 2Идентификатор кодека                     : mp42 (isom/mp42)Размер файла                             : 45,8 МбайтПродолжительность                        : 18 м. 40 с.Режим общего битрейта                    : ПеременныйОбщий поток                              : 343 Кбит/секДата кодирования                         : UTC 2019-02-09 12:09:48Дата пометки                             : UTC 2019-02-09 12:09:48ВидеоИдентификатор                            : 1Формат                                   : AVCФормат/Информация                        : Advanced Video CodecПрофиль формата                          : Main@L3.1Настройки формата                        : CABAC / 3 Ref FramesПараметр CABAC формата                   : ДаПараметр RefFrames формата               : 3 кадраИдентификатор кодека                     : avc1Идентификатор кодека/Информация          : Advanced Video CodingПродолжительность                        : 18 м. 40 с.Битрейт                                  : 214 Кбит/секШирина                                   : 1280 пикселейВысота                                   : 720 пикселейСоотношение сторон                       : 16:9Режим частоты кадров                     : ПостоянныйЧастота кадров                           : 30,000 кадров/секСтандарт вещания                         : NTSCЦветовое пространство                    : YUVСубдискретизация насыщенности            : 4:2:0Битовая глубина                          : 8 битТип развёртки                            : ПрогрессивнаяБит/(Пиксели*Кадры)                      : 0.008Размер потока                            : 28,6 Мбайт (63%)Язык                                     : EnglishДата кодирования                         : UTC 2019-02-09 12:09:48Дата пометки                             : UTC 2019-02-09 12:09:48Цветовой диапазон                        : LimitedCodec configuration box                  : avcCАудиоИдентификатор                            : 2Формат                                   : AAC LCФормат/Информация                        : Advanced Audio Codec Low ComplexityИдентификатор кодека                     : mp4a-40-2Продолжительность                        : 18 м. 40 с.Вид битрейта                             : ПеременныйБитрейт                                  : 126 Кбит/секМаксимальный битрейт                     : 400 Кбит/секКаналы                                   : 2 каналаChannel layout                           : L RЧастота                                  : 44,1 КГцЧастота кадров                           : 43,066 кадра/сек (1024 SPF)Метод сжатия                             : С потерямиРазмер потока                            : 16,8 Мбайт (37%)Язык                                     : EnglishДата кодирования                         : UTC 2019-02-09 12:09:48Дата пометки                             : UTC 2019-02-09 12:09:48
Файлы примеров: отсутствуют
Формат видео: MP4
Видео: AVC; 1280x720; 16:9; 30,000 кадров/сек; 214 Кбит/сек
Аудио: AAC LC; 44,1 КГц; 126 Кбит/сек; 2 канала

Скриншоты


To download the content you need:
1. Download and install torrent client [for Windows] or for mobile system
2. Click on [Download]
Attention.
If the test YOU are NOT a ROBOT - does not work, then You are using an outdated browser.
Install the current browser and click on [Download]
Security: torrent client is allowed by Kaspersky.

[asmlocator.ru].t647534.torrent 
Torrent: Registered [ 2019-06-28 00:40 ] · 07584422872913F6FE9AF493B3F525CF5887CEC3

Download .torrent

Download

11 KB

Status: checked
Completed: 6 times
Size: 1.03 GB
terms.php
[Profile] [PM]
Display posts:    
Reply to topic

Current time is: 18-Jul 05:42

All times are UTC ± 0



You cannot post new topics in this forum
You cannot reply to topics in this forum
You cannot edit your posts in this forum
You cannot delete your posts in this forum
You cannot vote in polls in this forum
You cannot attach files in this forum
You can download files in this forum