Смывайся / Flushed Away (Дэвид Бауэрс / David Bowers, Сэм Фелл / Sam Fell) [2006, мультфильм, комедия, приключения, семейный, BDRip 1080p] DUB + DVO + UKR (Dub, MVO) + ENG + Sub (Rus, Ukr, Eng)

Reply to topic
DL-List and Torrent activity
Size:  8.98 GB   |    Registered:  28 days   |    Completed:  1 time

Seeder not seen: 40 minutes

 
   
 
 
Author Message

star21 ®

Gender: Female

Longevity: 3 years 8 months

Posts: 552042

Location: Екатеринбург

Post 19-Jun-2019 20:15

[Quote]

Смывайся | Flushed Away«Из цивилизации - в канализацию» Год выпуска: 2006
Страна: Великобритания, США | Aardman Animations, DreamWorks Animation
Жанр: Мультфильм, комедия, приключения, семейный
Продолжительность: 01:25:02Перевод: Профессиональный (дублированный) | DVD R5 Rus
Перевод 2: Профессиональный (двухголосый закадровый) | П. Гланц и И. Королёва
Перевод 3: Профессиональный (дублированный) | DVD R5 Ukr
Перевод 4: Профессиональный (многоголосый закадровый) Новый канал Ukr
Субтитры: Русские, Украинские, Английские
Оригинальная аудиодорожка: АнглийскийРежиссер: Дэвид Бауэрс / David Bowers, Сэм Фелл / Sam FellРоли озвучивали: Хью Джекман, Кейт Уинслет, Иэн МакКеллен, Жан Рено, Билл Найи, Энди Серкис, Шэйн Ричи, Кэти Бёрк, Дэвид Суше, Мириам МаргулисОписание: Родди — привилегированная крыса, живущая жизнью любимого домашнего животного в престижном пентхаусе. Однажды засорившаяся раковина «выплевывает» в квартиру канализационную крысу Сида, которому приходятся по душе роскошные апартаменты.Чтобы избавиться от надоедливого гостя, Родди решает смыть его в унитаз, но житель канализации не такой простак, каким кажется, и в итоге в унитазе оказывается сам Родди. Попав в канализацию, ему предстоит привыкнуть к совершенно новой, незнакомой ему жизни…
Третья совместная работа студий DreamWorks Animation и Aardman Animations. В отличие от предыдущих мультфильмов этого творческого союза, сделанных с помощью пластилиновой анимации, эта лента сделана целиком с помощью компьютерной анимации, однако в основу мультфильма вошла и пластилиновая анимация.Доп. инфо.
П. Гланц и И. Королёва - звуковая дорожка получена наложением чистого голоса перевода на центральный канал DTS-HD оригинала. Работа с дорожкой xfiles - Спасибо!
[imdb]http://www.imdb.com/title/tt0424095[/imdb]
Sample
релиз: Качество: BDRip 1080p | Flushed Away 2006 1080p Blu-ray Remux AVC DTS-HD MA 5.1 - BluDragon
Формат: MKV
Видео: AVC 10.9 Mb/s 1920 x 1036 (1.853) 23.976 fps
Аудио1: Русский AC3 5.1, 48 KHz, 384 kbps Профессиональный (дублированный) (DVD R5)
Аудио2: Русский DTS 1509 kb/s 6 channels, 48.0 kHz Профессиональный (двухголосый закадровый) (П. Гланц и И. Королёва )
Аудио3: Украинский AC3 5.1, 48 KHz, 384 kbps Профессиональный (дублированный) (DVD R5)
Аудио4: Украинский AC-3 192 kb/s 2 channels, 48.0 kHz MVO | Новый канал
Аудио5: DTS 1509 kb/s 6 channels, 48.0 kHz Eng
Аудио6: DTS 255 kb/s 2 channels, 48.0 kHz Eng Commentary by DirectorsСубтитры: Русские (форсированные, полные), Украинские, Английские (полные, полные (SDH)

Mediainfo |Log

Log

x264 [info]: frame I:1240 Avg QP:12.56 size:277277
x264 [info]: frame P:36508 Avg QP:13.90 size: 99545
x264 [info]: frame B:84585 Avg QP:15.49 size: 34945
x264 [info]: consecutive B-frames: 4.7% 6.1% 35.1% 25.7% 13.1% 11.8% 1.7% 0.5% 0.9% 0.4%
x264 [info]: mb I I16..4: 12.3% 68.9% 18.8%
x264 [info]: mb P I16..4: 2.8% 22.5% 2.5% P16..4: 24.6% 27.6% 11.5% 2.5% 0.2% skip: 5.8%
x264 [info]: mb B I16..4: 0.9% 4.3% 0.4% B16..8: 28.8% 21.3% 4.4% direct: 7.2% skip:32.7% L0:42.2% L1:43.9% BI:13.9%
x264 [info]: 8x8 transform intra:78.7% inter:45.8%
x264 [info]: direct mvs spatial:100.0% temporal:0.0%
x264 [info]: coded y,uvDC,uvAC intra: 85.2% 90.7% 80.1% inter: 23.2% 32.3% 13.5%
x264 [info]: i16 v,h,dc,p: 32% 15% 19% 35%
x264 [info]: i8 v,h,dc,ddl,ddr,vr,hd,vl,hu: 10% 12% 18% 8% 9% 9% 10% 10% 13%
x264 [info]: i4 v,h,dc,ddl,ddr,vr,hd,vl,hu: 14% 11% 21% 7% 11% 10% 10% 8% 9%
x264 [info]: i8c dc,h,v,p: 52% 22% 16% 10%
x264 [info]: Weighted P-Frames: Y:1.7% UV:1.3%
x264 [info]: ref P L0: 61.2% 6.2% 22.6% 9.5% 0.5% 0.0%
x264 [info]: ref B L0: 81.5% 15.0% 3.5%
x264 [info]: ref B L1: 95.5% 4.5%
x264 [info]: kb/s:10871.67x264 [total]: encoded 122333 frames, 5.92 fps, 10871.67 kb/s, duration 5:44:17.74
Format : Matroska
Format version : Version 4
File size : 8.98 GiB
Duration : 1 h 25 min
Overall bit rate : 15.1 Mb/s
Encoded date : UTC 2019-06-01 12:52:39
Writing application : mkvmerge v8.2.0 ('World of Adventure') 64bit
Writing library : libebml v1.3.1 + libmatroska v1.4.2Video
ID : 1
Format : AVC
Format/Info : Advanced Video Codec
Format profile : High@L4.1
Format settings : CABAC / 4 Ref Frames
Format settings, CABAC : Yes
Format settings, Reference frames : 4 frames
Codec ID : V_MPEG4/ISO/AVC
Duration : 1 h 25 min
Bit rate : 10.9 Mb/s
Width : 1 920 pixels
Height : 1 036 pixels
Display aspect ratio : 1.85:1
Frame rate mode : Constant
Frame rate : 23.976 (24000/1001) FPS
Color space : YUV
Chroma subsampling : 4:2:0
Bit depth : 8 bits
Scan type : Progressive
Bits/(Pixel*Frame) : 0.228
Stream size : 6.46 GiB (72%)
Title : Flushed Away (2006).1080p [rupeer.com]
Writing library : x264 core 152 r2851kMod ba24899
Encoding settings : cabac=1 / ref=4 / deblock=1:-3:-3 / analyse=0x3:0x133 / me=umh / subme=11 / psy=1 / fade_compensate=0.00 / psy_rd=1.00:0.05 / mixed_ref=1 / me_range=48 / chroma_me=1 / trellis=2 / 8x8dct=1 / cqm=0 / deadzone=21,11 / fast_pskip=0 / chroma_qp_offset=-3 / threads=12 / lookahead_threads=2 / sliced_threads=0 / nr=0 / decimate=1 / interlaced=0 / bluray_compat=0 / constrained_intra=0 / bframes=9 / b_pyramid=2 / b_adapt=2 / b_bias=0 / direct=3 / weightb=1 / open_gop=0 / weightp=2 / keyint=250 / keyint_min=23 / scenecut=40 / intra_refresh=0 / rc_lookahead=60 / rc=crf / mbtree=0 / crf=16.7000 / qcomp=0.60 / qpmin=0 / qpmax=69 / qpstep=4 / vbv_maxrate=50000 / vbv_bufsize=62500 / crf_max=0.0 / nal_hrd=none / filler=0 / ip_ratio=1.40 / pb_ratio=1.30 / aq=3:0.90
Language : English
Default : Yes
Forced : NoAudio #1
ID : 2
Format : AC-3
Format/Info : Audio Coding 3
Commercial name : Dolby Digital
Codec ID : A_AC3
Duration : 1 h 25 min
Bit rate mode : Constant
Bit rate : 384 kb/s
Channel(s) : 6 channels
Channel layout : L R C LFE Ls Rs
Sampling rate : 48.0 kHz
Frame rate : 31.250 FPS (1536 SPF)
Bit depth : 16 bits
Compression mode : Lossy
Stream size : 234 MiB (3%)
Title : DUB R5
Language : Russian
Service kind : Complete Main
Default : Yes
Forced : NoAudio #2
ID : 3
Format : DTS
Format/Info : Digital Theater Systems
Codec ID : A_DTS
Duration : 1 h 25 min
Bit rate mode : Constant
Bit rate : 1 509 kb/s
Channel(s) : 6 channels
Channel layout : C L R Ls Rs LFE
Sampling rate : 48.0 kHz
Frame rate : 93.750 FPS (512 SPF)
Bit depth : 16 bits
Compression mode : Lossy
Stream size : 918 MiB (10%)
Title : DVO Glanz i Koroleva
Language : Russian
Default : No
Forced : NoAudio #3
ID : 4
Format : AC-3
Format/Info : Audio Coding 3
Commercial name : Dolby Digital
Codec ID : A_AC3
Duration : 1 h 25 min
Bit rate mode : Constant
Bit rate : 384 kb/s
Channel(s) : 6 channels
Channel layout : L R C LFE Ls Rs
Sampling rate : 48.0 kHz
Frame rate : 31.250 FPS (1536 SPF)
Bit depth : 16 bits
Compression mode : Lossy
Stream size : 234 MiB (3%)
Title : DUB R5
Language : Ukrainian
Service kind : Complete Main
Default : No
Forced : NoAudio #4
ID : 5
Format : AC-3
Format/Info : Audio Coding 3
Commercial name : Dolby Digital
Codec ID : A_AC3
Duration : 1 h 25 min
Bit rate mode : Constant
Bit rate : 192 kb/s
Channel(s) : 2 channels
Channel layout : L R
Sampling rate : 48.0 kHz
Frame rate : 31.250 FPS (1536 SPF)
Bit depth : 16 bits
Compression mode : Lossy
Stream size : 117 MiB (1%)
Title : MVO Novyi Kanal Ukrainian
Language : Ukrainian
Service kind : Complete Main
Default : No
Forced : NoAudio #5
ID : 6
Format : DTS
Format/Info : Digital Theater Systems
Codec ID : A_DTS
Duration : 1 h 25 min
Bit rate mode : Constant
Bit rate : 1 509 kb/s
Channel(s) : 6 channels
Channel layout : C L R Ls Rs LFE
Sampling rate : 48.0 kHz
Frame rate : 93.750 FPS (512 SPF)
Bit depth : 24 bits
Compression mode : Lossy
Stream size : 918 MiB (10%)
Title : Original
Language : English
Default : No
Forced : NoAudio #6
ID : 7
Format : DTS
Format/Info : Digital Theater Systems
Codec ID : A_DTS
Duration : 1 h 25 min
Bit rate mode : Constant
Bit rate : 255 kb/s
Channel(s) : 2 channels
Channel layout : Lt Rt
Sampling rate : 48.0 kHz
Frame rate : 93.750 FPS (512 SPF)
Bit depth : 24 bits
Compression mode : Lossy
Stream size : 155 MiB (2%)
Title : Comentary
Language : English
Default : No
Forced : NoText #1
ID : 8
Format : UTF-8
Codec ID : S_TEXT/UTF8
Codec ID/Info : UTF-8 Plain Text
Duration : 1 h 23 min
Bit rate : 1 b/s
Count of elements : 13
Stream size : 715 Bytes (0%)
Title : Forced
Language : Russian
Default : Yes
Forced : NoText #2
ID : 9
Format : UTF-8
Codec ID : S_TEXT/UTF8
Codec ID/Info : UTF-8 Plain Text
Duration : 1 h 15 min
Bit rate : 98 b/s
Count of elements : 1101
Stream size : 54.5 KiB (0%)
Title : Full
Language : Russian
Default : No
Forced : NoText #3
ID : 10
Format : UTF-8
Codec ID : S_TEXT/UTF8
Codec ID/Info : UTF-8 Plain Text
Duration : 1 h 23 min
Bit rate : 82 b/s
Count of elements : 1101
Stream size : 50.5 KiB (0%)
Title : Full
Language : Ukrainian
Default : No
Forced : NoText #4
ID : 11
Format : UTF-8
Codec ID : S_TEXT/UTF8
Codec ID/Info : UTF-8 Plain Text
Duration : 1 h 15 min
Bit rate : 59 b/s
Count of elements : 1096
Stream size : 33.0 KiB (0%)
Title : Full
Language : English
Default : No
Forced : NoText #5
ID : 12
Format : UTF-8
Codec ID : S_TEXT/UTF8
Codec ID/Info : UTF-8 Plain Text
Duration : 1 h 23 min
Bit rate : 69 b/s
Count of elements : 1456
Stream size : 42.3 KiB (0%)
Title : SDH
Language : English
Default : No
Forced : NoText #6
ID : 13
Format : UTF-8
Codec ID : S_TEXT/UTF8
Codec ID/Info : UTF-8 Plain Text
Duration : 1 h 16 min
Bit rate : 172 b/s
Count of elements : 1242
Stream size : 96.8 KiB (0%)
Title : Commentary by Directors
Language : Russian
Default : No
Forced : NoText #7
ID : 14
Format : UTF-8
Codec ID : S_TEXT/UTF8
Codec ID/Info : UTF-8 Plain Text
Duration : 1 h 16 min
Bit rate : 100 b/s
Count of elements : 1242
Stream size : 56.3 KiB (0%)
Title : Commentary by Directors
Language : English
Default : No
Forced : NoMenu
00:00:00.000 : en:Dancing with Myself
00:04:16.047 : en:Sid From the Sewer
00:07:47.717 : en:Roddy Gets Flushed
00:13:46.325 : en:The Jammy Dodger
00:19:13.903 : en:The Toad
00:26:07.483 : en:It's A Deal
00:32:40.959 : en:Rita's Family
00:37:37.422 : en:Ice Cold Rita
00:43:08.336 : en:Getting Away
00:47:14.957 : en:Le Frog
00:50:15.763 : en:Goodnight Roddy
00:53:04.973 : en:Goodbye Jammy
00:59:18.263 : en:Mr. Lonely
01:04:23.151 : en:Half Time
01:14:42.603 : en:Rollin' on a River
01:16:58.239 : en:End Credits

Скриншоты



To download the content you need:
1. Download and install torrent client [for Windows] or for mobile system
2. Click on [Download]
Attention.
If the test YOU are NOT a ROBOT - does not work, then You are using an outdated browser.
Install the current browser and click on [Download]
Security: torrent client is allowed by Kaspersky.

[asmlocator.ru].t646070.torrent 
Torrent: Registered [ 2019-06-19 20:15 ] · D9D0EFC9EE15D8BFA258E51406EF94CA034E4A8B

Download .torrent

Download

23 KB

Status: checked
Completed: 1 times
Size: 8.98 GB
terms.php
[Profile] [PM]
Display posts:    
Reply to topic

Current time is: 18-Jul 05:45

All times are UTC ± 0



You cannot post new topics in this forum
You cannot reply to topics in this forum
You cannot edit your posts in this forum
You cannot delete your posts in this forum
You cannot vote in polls in this forum
You cannot attach files in this forum
You can download files in this forum