Крадущийся тигр, затаившийся дракон: Меч судьбы / Crouching Tiger, Hidden Dragon: Sword of Destiny (Юэнь Воо-пин / Yuen Woo-ping) [2016, Китай, США, боевик, приключения, BDRip] AVO (Андрей Дольский)

Reply to topic
DL-List and Torrent activity
Size:  1.46 GB   |    Registered:  1 month 2 days   |    Completed:  0 times

Seeder not seen: Never

 
   
 
 
Author Message

star21 ®

Gender: Female

Longevity: 3 years 8 months

Posts: 552042

Location: Екатеринбург

Post 15-Jun-2019 08:05

[Quote]

Крадущийся тигр, затаившийся дракон: Меч судьбы / Crouching Tiger, Hidden Dragon: Sword of Destiny Страна: Китай, США
Жанр: боевик, приключения
Год выпуска: 2016
Продолжительность: 01:42:31Перевод: Авторский (одноголосый закадровый) Андрей Дольский
Субтитры: нет
Режиссер: Юэнь Воо-пин / Yuen Woo-pingВ ролях: Донни Йен, Мишель Йео, Гарри Шам мл., Джейсон Ли, Евгения Йуан, Жужу Чан, Крис Пэнг, Дэррил Квон, Роджер ЙуанОписание: После смерти доблестного Ли Му Бая отягощенная воспоминаниями и утратой Шу Льен приезжает в Пекин. Здесь, в доме, где все когда-то начиналось, она пытается понять, то же на самом деле повлекло за собой столь разрушительные последствия. Вскоре Шу Льен становится понятно, что за Мечом Судьбы должны прийти. Предчувствие девушки оправдывается, в дом пробираются несколько агрессивных людей. Мужественная китаянка приглашает в дом для охраны Меча Судьбы знаменитых на весь Китай мастеров. Их дерзкие имена говорят сами за себя. Летающий клинок, Серебряный дарт и Железный ворон станут серьезным препятствием для коварных недоброжелателей. Возглавляет профессиональную команду мудрейший из бойцов Тихий Волк. Вскоре между ним и Шу Льен возникают странные чувства, напоминающие те, то когда-то девушка испытывала к Ли Му Баю. Сможет ли любовь найти свое место между жестокими поединками и местью...? Сэмпл: http://multi-up.com/1233187Качество видео: BDRip (Исходник BDRemux 1080p)
Формат видео: AVIВидео: XviD 73, 720x304, (2,35:1), 23,976 fps, 1651 Кбит/с, 8 бит, 0.31 bit/pixel
Аудио: Русский (АС3, 6 ch (Front: L C R, Side: L R, LFE), 48,0 KHz, 384 Kbps

MediaInfo

ОбщееПолное имя                               : D:\Фильмы на трекер\Крадущийся тигр, затаившийся дракон  Меч судьбы  (боевик, приключения 2016 год).aviФормат                                   : AVIФормат/Информация                        : Audio Video InterleaveРазмер файла                             : 1,46 ГбайтПродолжительность                        : 1 ч. 42 м.Общий поток                              : 2044 Кбит/секПрограмма кодирования                    : VirtualDubMod 1.5.10.3 | www.virtualdub-fr.org || (build 2550/release)Библиотека кодирования                   : VirtualDubMod build 2550/releaseВидеоИдентификатор                            : 0Формат                                   : MPEG-4 VisualПрофиль формата                          : Advanced Simple@L5Параметр BVOP формата                    : 2Параметр QPel формата                    : НетПараметр GMC формата                     : Без точки переходаПараметр матрицы формата                 : ВыборочнаяИдентификатор кодека                     : XVIDИдентификатор кодека/Подсказка           : XviDПродолжительность                        : 1 ч. 42 м.Битрейт                                  : 1651 Кбит/секШирина                                   : 720 пикселейВысота                                   : 304 пикселяСоотношение сторон                       : 2,35:1Частота кадров                           : 23,976 (23976/1000) кадра/секЦветовое пространство                    : YUVСубдискретизация насыщенности            : 4:2:0Битовая глубина                          : 8 битТип развёртки                            : ПрогрессивнаяМетод сжатия                             : С потерямиБит/(Пиксели*Кадры)                      : 0.315Размер потока                            : 1,18 Гбайт (81%)Библиотека кодирования                   : XviD 73АудиоИдентификатор                            : 1Формат                                   : AC-3Формат/Информация                        : Audio Coding 3Расширение режима                        : CM (complete main)Параметр Endianness формата              : BigИдентификатор кодека                     : 2000Продолжительность                        : 1 ч. 42 м.Вид битрейта                             : ПостоянныйБитрейт                                  : 384 Кбит/секКаналы                                   : 6 каналовРасположение каналов                     : Front: L C R, Side: L R, LFEЧастота                                  : 48,0 КГцЧастота кадров                           : 31,250 кадров/сек (1536 spf)Метод сжатия                             : С потерямиРазмер потока                            : 282 Мбайт (19%)Выравнивание                             : Разделение по промежуткамПродолжительность промежутка             : 42  мс. (1,00 видеокадр)Время предзагрузки промежутка            : 500  мс.

Скриншот c названием фильма

Скриншоты


To download the content you need:
1. Download and install torrent client [for Windows] or for mobile system
2. Click on [Download]
Attention.
If the test YOU are NOT a ROBOT - does not work, then You are using an outdated browser.
Install the current browser and click on [Download]
Security: torrent client is allowed by Kaspersky.

[asmlocator.ru].t645866.torrent 
Torrent: Registered [ 2019-06-15 08:05 ] · 49AE647ACDF961F862BBD6DD39633E1C429D87B1

Download .torrent

Download

15 KB

Status: checked
Completed: 0 times
Size: 1.46 GB
terms.php
[Profile] [PM]

plastssss

Gender: Male

Longevity: 10 days

Posts: 1

Location: россия

Post 08-Jul-2019 11:14 (after 23 days)

[Quote]

фильм суперский
[Profile] [PM]
Display posts:    
Reply to topic

Current time is: 18-Jul 05:47

All times are UTC ± 0



You cannot post new topics in this forum
You cannot reply to topics in this forum
You cannot edit your posts in this forum
You cannot delete your posts in this forum
You cannot vote in polls in this forum
You cannot attach files in this forum
You can download files in this forum