Непобедимый Железный Человек 1966 / Invincible Iron Man 1966 / Сезон: 1 (1) / Серии: 1-13 из 13 (Клайд Джероними, Сид Маркус / Clyde Geronimi, Sid Marcus) (фантастика, боевик, DVDRemux) MVO + Original

Reply to topic
DL-List and Torrent activity
Size:  8.34 GB   |    Registered:  2 months 5 days   |    Completed:  1 time

Seeder not seen: 21 minute

 
   
 
 
Author Message

star21 ®

Gender: Female

Longevity: 3 years 9 months

Posts: 551989

Location: Екатеринбург

Post 12-Jun-2019 02:30

[Quote]

Непобедимый Железный Человек 1966 / Invincible Iron Man 1966The Complete Series Год выпуска: 1 сентября – 1 декабря 1966
Страна: США
Жанр: Фантастика, боевик
Продолжительность: 17 мин.
Режиссёр: Клайд Джероними, Сид Маркус / Clyde Geronimi, Sid MarcusОписание:
Как и у всех супергероев, у этого персонажа есть собственный «маленький» секрет. Он всегда носит с собой дипломат, в котором… его металлический «смокинг».Миллиардер, блестящий изобретатель, владелец огромной компании — ТОНИ СТАРК добился всего. Воплощению его нечеловеческих желаний теперь мешало наличие вполне человеческих способностей. Он решил и эту проблему, создав из особого сплава костюм Железного Человека… чтобы помешать коварному Мандарину в его планах поработить мир.Аудиодорожка 01: AC3 | 48khz | 2ch | 192kb/s Профессиональный (многоголосый закадровый)
Аудиодорожка 02: AC3 | 48khz | 2ch | 192kb/s Оригинал (english)
Субтитры : отсутствуют
Разбивка на главы : НетКачество: DVDRemux
Формат: MKV
Видео кодек: MPEG2
Аудио кодек: AC3Видео: MPEG-2 Video | PAL | 4:3 | 720x576 | 25.000 fps | 4600 Kbps/

Наличие серий в раздаче


Episode 1: Double Disaster, Enter Happy Hogan, Of Ice and Men
Episode 2: The Death of Tony Stark!, The Hands of the Mandarin, The Origin of The Mandarin
Episode 3: Ultimo, Ultimo Lives, Crescendo
Episode 4: The Mandarin's Revenge!, The Mandarin's Death Ray, No One Escapes the Mandarin
Episode 5: Crimson Dynamo!, The Crimson Dynamo Strikes, Captured
Episode 6: Enter Hawkeye, So Spins the Web, Triple Jeopardy
Episode 7: If I Die, Let It Be With Honor; Fight On, For A World Is Watching; What Price Victory?
Episode 8: The Moleman Strikes, The Dragon of the Flames, Decision Under the Earth
Episode 9: The Other Iron Man!, Death Duel, Into The Jaws of the Death
Episode 10: The Cliffs of Doom!, The False Captain America, The Unmasking
Episode 11: My Life For Yours, The Black Knight's Gambit, The Menace of the Monster
Episode 12: The Dream Master, If A Man Be Mad, Duel In Space
Episode 13: Beauty and the Armor, Peril in Space, As A City Watches

Media info

ОбщееУникальный идентификатор                 : 37975244200016855603348230283530591125 (0x1C91C4183FF4C1082B525CB92ECBDB95)Полное имя                               : D:\Ремуксы\[AORE] The Invincible Iron Man (1966)\01. Double Disaster.mkvФормат                                   : MatroskaВерсия формата                           : Version 4 / Version 2Размер файла                             : 625 МбайтПродолжительность                        : 17 м. 31 с.Режим общего битрейта                    : ПостоянныйОбщий поток                              : 4986 Кбит/секДата кодирования                         : UTC 2018-08-13 19:01:56Программа кодирования                    : mkvmerge v25.0.0 ('Prog Noir') 64-bitБиблиотека кодирования                   : libebml v1.3.6 + libmatroska v1.4.9ВидеоИдентификатор                            : 1Формат                                   : MPEG VideoВерсия формата                           : Version 2Профиль формата                          : Main@MainНастройки формата                        : CustomMatrix / BVOPПараметр BVOP формата                    : ДаПараметр матрицы формата                 : ВыборочнаяПараметр GOP формата                     : M=3, N=15Структура изображения                    : FrameИдентификатор кодека                     : V_MPEG2Идентификатор кодека/Информация          : MPEG 1 or 2 VideoПродолжительность                        : 17 м. 31 с.Вид битрейта                             : ПостоянныйБитрейт                                  : 4600 Кбит/секШирина                                   : 720 пикселейВысота                                   : 576 пикселейСоотношение сторон                       : 4:3Режим частоты кадров                     : ПостоянныйЧастота кадров                           : 25,000 кадров/секСтандарт вещания                         : PALЦветовое пространство                    : YUVСубдискретизация насыщенности            : 4:2:0Битовая глубина                          : 8 битТип развёртки                            : ЧересстрочнаяПорядок развёртки                        : Нижнее поле первоеМетод сжатия                             : С потерямиБит/(Пиксели*Кадры)                      : 0.444Временной код первого кадра              : 00:00:00:00Оригинал временного кода                 : Group of pictures headerGOP, открыто/закрыто                     : ОткрытоGOP, открыто/закрыто на первом кадре     : ЗакрытоРазмер потока                            : 576 Мбайт (92%)Язык                                     : EnglishDefault                                  : НетForced                                   : НетАудио #1Идентификатор                            : 2Формат                                   : AC-3Формат/Информация                        : Audio Coding 3Идентификатор кодека                     : A_AC3Продолжительность                        : 17 м. 31 с.Вид битрейта                             : ПостоянныйБитрейт                                  : 192 Кбит/секКаналы                                   : 2 каналаРасположение каналов                     : Front: L RЧастота                                  : 48,0 КГцЧастота кадров                           : 31,250 кадров/сек (1536 SPF)Битовая глубина                          : 16 битМетод сжатия                             : С потерямиРазмер потока                            : 24,1 Мбайт (4%)Язык                                     : RussianServiceKind/String                       : Complete MainDefault                                  : ДаForced                                   : НетАудио #2Идентификатор                            : 3Формат                                   : AC-3Формат/Информация                        : Audio Coding 3Идентификатор кодека                     : A_AC3Продолжительность                        : 17 м. 31 с.Вид битрейта                             : ПостоянныйБитрейт                                  : 192 Кбит/секКаналы                                   : 2 каналаРасположение каналов                     : Front: L RЧастота                                  : 48,0 КГцЧастота кадров                           : 31,250 кадров/сек (1536 SPF)Битовая глубина                          : 16 битМетод сжатия                             : С потерямиРазмер потока                            : 24,1 Мбайт (4%)Язык                                     : EnglishServiceKind/String                       : Complete MainDefault                                  : НетForced                                   : Нет

Скриншоты

Информация о проекте:
Были использованы 2 DVD. Все оставлено в исходном виде.DVD-рип с русского изданияМои ремуксы


To download the content you need:
1. Download and install torrent client [for Windows] or for mobile system
2. Click on [Download]
Attention.
If the test YOU are NOT a ROBOT - does not work, then You are using an outdated browser.
Install the current browser and click on [Download]
Security: torrent client is allowed by Kaspersky.

[asmlocator.ru].t644724.torrent 
Torrent: Registered [ 2019-06-12 02:30 ] · A8E549C920A6C0E6988F85D84C5CC346DDE29653

Download .torrent

Download

43 KB

Status: checked
Completed: 1 times
Size: 8.34 GB
terms.php
[Profile] [PM]
Display posts:    
Reply to topic

Current time is: 17-Aug 11:51

All times are UTC ± 0



You cannot post new topics in this forum
You cannot reply to topics in this forum
You cannot edit your posts in this forum
You cannot delete your posts in this forum
You cannot vote in polls in this forum
You cannot attach files in this forum
You can download files in this forum