[TR24][OF] Черное зеркало: Осколки / Black Mirror: Smithereens (by Ryuichi Sakamoto) - 2019 (Score, Modern Classical)

Reply to topic
DL-List and Torrent activity
Size:  618 MB   |    Registered:  2 months 9 days   |    Completed:  0 times

Seeder not seen: 23 minutes

 
   
 
 
Author Message

star21 ®

Gender: Female

Longevity: 3 years 9 months

Posts: 551989

Location: Екатеринбург

Post 07-Jun-2019 19:00

[Quote]

Черное зеркало: Осколки / Black Mirror: Smithereens Формат записи/Источник записи: [TR24][OF]
Наличие водяных знаков: Нет
Композитор: Ryuichi Sakamoto
Год издания/переиздания диска: 2019
Жанр: Score, Modern Classical
Издатель (лейбл): Milan Records
Продолжительность: 00:34:15
Наличие сканов в содержимом раздачи: Только обложка альбомаТреклист:
01. Meditation App (5:04)
02. Plot (1:09)
03. This Is My Last Day (1:10)
04. Hayley (1:29)
05. Prey (2:28)
06. Chain Smoking Addict (1:03)
07. Chase (2:50)
08. Reverse Surface (1:36)
09. Closing In (1:39)
10. Countdown (0:58)
11. Retreat (0:31)
12. Flashback (1:05)
13. Gun Is Real (0:44)
14. Shot (2:09)
15. Degrade (0:55)
16. Car Crash (3:00)
17. This Is My Last Day 2 (2:37)
18. Memory of a Single Moment (1:31)
19. Release (2:17)Контейнер: FLAC (*.flac)
Тип рипа: tracksРазрядность: 24/96
Формат: WAV (flac.ape.wv)
Количество каналов: 2.0

Лог проверки качества

foobar2000 1.4.4 / Dynamic Range Meter 1.1.1log date: 2019-06-07 21:45:26--------------------------------------------------------------------------------Analyzed: Ryuichi Sakamoto / Black Mirror: Smithereens (Music from the Original TV Series)--------------------------------------------------------------------------------DR         Peak         RMS     Duration Track--------------------------------------------------------------------------------DR10      -1.99 dB   -15.91 dB      5:04 01-Meditation AppDR9       -1.71 dB   -15.96 dB      1:09 02-PlotDR13      -1.50 dB   -17.60 dB      1:10 03-This Is My Last DayDR10      -2.46 dB   -16.97 dB      1:29 04-HayleyDR8       -0.70 dB   -12.41 dB      2:28 05-PreyDR12      -1.49 dB   -16.00 dB      1:03 06-Chain Smoking AddictDR5       -0.70 dB    -9.76 dB      2:50 07-ChaseDR6       -0.70 dB    -9.76 dB      1:36 08-Reverse SurfaceDR6       -0.70 dB   -10.48 dB      1:39 09-Closing InDR8       -0.92 dB   -10.46 dB      0:58 10-CountdownDR8       -3.15 dB   -15.55 dB      0:31 11-RetreatDR9       -2.76 dB   -17.06 dB      1:05 12-FlashbackDR10      -0.70 dB   -11.45 dB      0:44 13-Gun Is RealDR9       -1.38 dB   -13.41 dB      2:09 14-ShotDR8       -2.71 dB   -13.03 dB      0:55 15-DegradeDR9       -1.38 dB   -14.00 dB      3:00 16-Car CrashDR14      -2.67 dB   -20.31 dB      2:37 17-This Is My Last Day 2DR11      -5.05 dB   -19.65 dB      1:31 18-Memory of a Single MomentDR5       -0.70 dB    -9.26 dB      2:17 19-Release--------------------------------------------------------------------------------Number of tracks:  19Official DR value: DR9Samplerate:        96000 HzChannels:          2Bits per sample:   24Bitrate:           2748 kbpsCodec:             FLAC================================================================================
Источник (релизер): redacted: qobuz

Об альбоме (сборнике)

A dystopian trip from the legendary composer and YMO co-founder.
Ryuichi Sakamoto has scored an episode of the new series of Black Mirror.
Further exploring themes around alienation and dystopian near-futures brought on by technological advancement, the episode, ‘Smithereens’, sees a disgruntled driver suffering a meltdown while working for an Uber-esque taxi company.
Ryuichi Sakamoto is the latest high profile composer to score an episode of the show, which is now entering its fifth season. Other artists like Sigur Rós and Clint Mansell have also seen their Black Mirror soundtracks subsequently released on vinyl.

To download the content you need:
1. Download and install torrent client [for Windows] or for mobile system
2. Click on [Download]
Attention.
If the test YOU are NOT a ROBOT - does not work, then You are using an outdated browser.
Install the current browser and click on [Download]
Security: torrent client is allowed by Kaspersky.

[asmlocator.ru].t643502.torrent 
Torrent: Registered [ 2019-06-07 19:00 ] · 4741BF39BB8F43D910A982AF70C68A06C299F40A

Download .torrent

Download

14 KB

Status: checked
Completed: 0 times
Size: 618 MB
terms.php
[Profile] [PM]
Display posts:    
Reply to topic

Current time is: 17-Aug 11:53

All times are UTC ± 0



You cannot post new topics in this forum
You cannot reply to topics in this forum
You cannot edit your posts in this forum
You cannot delete your posts in this forum
You cannot vote in polls in this forum
You cannot attach files in this forum
You can download files in this forum