(Classical) Чайковский, Рахманинов - Фортепианные трио - Kempf Trio - 2002, FLAC (image+.cue) lossless

Reply to topic
DL-List and Torrent activity
Size:  268 MB   |    Registered:  12 days   |    Completed:  0 times

Seeder not seen: 1 hour 3 minutes

 
   
 
 
Author Message

star21 ®

Gender: Female

Longevity: 3 years 7 months

Posts: 552133

Location: Екатеринбург

Post 07-Jun-2019 19:00

[Quote]

Чайковский, Рахманинов - Фортепианные трио - Kempf Trio Жанр: Classical
Страна-производитель диска: Sweden
Год издания диска: 2002
Издатель (лейбл): BIS
Номер по каталогу: BIS-CD-1302
Дата записи: 2002
Аудиокодек: FLAC
Тип рипа: image+.cue
Битрейт аудио: lossless
Продолжительность: 69:29
Источник: собственный рип
Наличие сканов в содержимом раздачи: даТреклист:Петр Ильич Чайковский
[1]-[16] Трио для фортепиано, скрипки и виолончели, Op.50 "Памяти великого художника"Сергей Васильевич Рахманинов
[17] Элегическое трио, Op.9 "Памяти великого художника"Исполнители:
Kempf Tlio
Freddy Kempf piano
Pierre Bensaid violin
Alexander Chaushian cello

Лог создания рипа

Exact Audio Copy V1.3 from 2. September 2016EAC extraction logfile from 3. June 2018, 21:33Kempf Trio / Tchaikovsky, Rachmaninov - Piano TriosUsed drive  : PLDS    DVD-RW DU8A6SH   Adapter: 1  ID: 0Read mode               : SecureUtilize accurate stream : YesDefeat audio cache      : YesMake use of C2 pointers : NoRead offset correction                      : 6Overread into Lead-In and Lead-Out          : NoFill up missing offset samples with silence : YesDelete leading and trailing silent blocks   : NoNull samples used in CRC calculations       : YesUsed interface                              : Native Win32 interface for Win NT & 2000Used output format              : User Defined EncoderSelected bitrate                : 128 kBit/sQuality                         : HighAdd ID3 tag                     : NoCommand line compressor         : C:\Program Files (x86)\Exact Audio Copy\Flac\flac.exeAdditional command line options : -V -8 -T "Date=%year%" -T "Genre=%genre%" %source%TOC of the extracted CD     Track |   Start  |  Length  | Start sector | End sector    ---------------------------------------------------------        1  |  0:00.00 | 10:23.00 |         0    |    46724        2  | 10:23.00 |  9:13.65 |     46725    |    88264        3  | 19:36.65 |  1:04.02 |     88265    |    93066        4  | 20:40.67 |  0:52.20 |     93067    |    96986        5  | 21:33.12 |  0:41.35 |     96987    |   100096        6  | 22:14.47 |  0:57.35 |    100097    |   104406        7  | 23:12.07 |  1:31.65 |    104407    |   111296        8  | 24:43.72 |  0:43.55 |    111297    |   114576        9  | 25:27.52 |  2:54.53 |    114577    |   127679       10  | 28:22.30 |  1:31.35 |    127680    |   134539       11  | 29:53.65 |  2:49.12 |    134540    |   147226       12  | 32:43.02 |  3:41.58 |    147227    |   163859       13  | 36:24.60 |  1:56.00 |    163860    |   172559       14  | 38:20.60 |  2:21.20 |    172560    |   183154       15  | 40:42.05 |  7:35.42 |    183155    |   217321       16  | 48:17.47 |  4:38.50 |    217322    |   238221       17  | 52:56.22 | 16:30.53 |    238222    |   312524Range status and errorsSelected range     Filename C:\temp\BIS-CD-1302 - Tchaikovsky, Rachmaninov - Piano Trios\Tchaikovsky, Rachmaninov - Piano Trios.wav     Peak level 100.0 %     Extraction speed 4.0 X     Range quality 100.0 %     Test CRC ED6C2D80     Copy CRC ED6C2D80     Copy OKNo errors occurredAccurateRip summaryTrack  1  accurately ripped (confidence 6)  [C85E42D4]  (AR v2)Track  2  accurately ripped (confidence 6)  [F4E7FE02]  (AR v2)Track  3  accurately ripped (confidence 6)  [263AACAE]  (AR v2)Track  4  accurately ripped (confidence 6)  [4BD24035]  (AR v2)Track  5  accurately ripped (confidence 6)  [B0718CF8]  (AR v2)Track  6  accurately ripped (confidence 6)  [7A92EF5B]  (AR v2)Track  7  accurately ripped (confidence 6)  [1F088E0B]  (AR v2)Track  8  accurately ripped (confidence 6)  [00441F6A]  (AR v2)Track  9  accurately ripped (confidence 6)  [1AE31C9F]  (AR v2)Track 10  accurately ripped (confidence 6)  [9427933F]  (AR v2)Track 11  accurately ripped (confidence 6)  [136B299D]  (AR v2)Track 12  accurately ripped (confidence 6)  [0E71BE55]  (AR v2)Track 13  accurately ripped (confidence 6)  [24A57413]  (AR v2)Track 14  accurately ripped (confidence 6)  [B3493486]  (AR v2)Track 15  accurately ripped (confidence 6)  [98903C30]  (AR v2)Track 16  accurately ripped (confidence 6)  [91423C71]  (AR v2)Track 17  accurately ripped (confidence 5)  [8448CBDA]  (AR v2)All tracks accurately rippedEnd of status report==== Log checksum C66ED99E6D1EF1854A84E84AA4B6CEEC85058412692851C4ABF8781A6CA998EF ====

To download the content you need:
1. Download and install torrent client [for Windows] or for mobile system
2. Click on [Download]
Attention.
If the test YOU are NOT a ROBOT - does not work, then You are using an outdated browser.
Install the current browser and click on [Download]
Security: torrent client is allowed by Kaspersky.

[asmlocator.ru].t643496.torrent 
Torrent: Registered [ 2019-06-07 19:00 ] · 9CFCB21BF414F5EBF7FA9FBC2567FFD085894C15

Download .torrent

Download

22 KB

Status: checked
Completed: 0 times
Size: 268 MB
terms.php
[Profile] [PM]
Display posts:    
Reply to topic

Current time is: 20-Jun 16:38

All times are UTC ± 0



You cannot post new topics in this forum
You cannot reply to topics in this forum
You cannot edit your posts in this forum
You cannot delete your posts in this forum
You cannot vote in polls in this forum
You cannot attach files in this forum
You can download files in this forum