[TR24][OF][FM] Balance, Not Symmetry (by Biffy Clyro) - 2019 (Score, Alternative Rock)

Ответить на тему
Статистика раздачи
Размер:  741 MB   |    Зарегистрирован:  7 месяцев 17 дней   |    Скачан:  0 раз

Полного источника не было: Никогда

 
   
 
 
Автор Сообщение

star21 ®

Пол: Женский

Стаж: 4 года 2 месяца

Сообщений: 551946

Откуда: Екатеринбург

Создавать темы 07-Июн-2019 02:10

[Цитировать]

Biffy Clyro - Balance, Not Symmetry Формат записи/Источник записи: [TR24][OF][FM]
Наличие водяных знаков: Нет
Год издания: 2019
Жанр: Score, Alternative Rock
Издатель (лейбл): Warner
Продолжительность: 01:05:15
Наличие сканов в содержимом раздачи: Только обложка альбома
Контейнер: FLAC (*.flac)
Тип рипа: tracks
Разрядность: 24/44.1
Формат: PCM
Количество каналов: 2.0
Источник (релизер): highresaudio.comТреклист
01. Balance, Not Symmetry
02. All Singing And All Dancing
03. Different Kind Of Love
04. Sunrise
05. Pink
06. Colour Wheel
07. Gates Of Heaven
08. Fever Dream
09. Navy Blue
10. Tunnels And Trees
11. Plead
12. The Naturals
13. Yellow
14. Touch
15. Jasabiab
16. Following Master
17. Adored

Лог проверки качества

foobar2000 1.4 / Dynamic Range Meter 1.1.1log date: 2019-05-17 06:11:10--------------------------------------------------------------------------------Analyzed: Biffy Clyro / Balance, Not Symmetry (Original Motion Picture Soundtrack)--------------------------------------------------------------------------------DR         Peak         RMS     Duration Track--------------------------------------------------------------------------------DR5        0.00 dB    -5.99 dB      3:02 01-Balance, Not SymmetryDR6        0.00 dB    -7.28 dB      4:21 02-All Singing And All DancingDR6        0.00 dB    -8.73 dB      3:28 03-Different Kind Of LoveDR4        0.00 dB    -6.33 dB      5:02 04-SunriseDR10      -2.07 dB   -15.82 dB      1:51 05-PinkDR6        0.00 dB    -7.87 dB      5:08 06-Colour WheelDR7        0.00 dB    -8.36 dB      2:41 07-Gates Of HeavenDR5        0.00 dB    -8.72 dB      6:12 08-Fever DreamDR10      -0.24 dB   -12.15 dB      1:43 09-Navy BlueDR5        0.00 dB    -7.59 dB      4:07 10-Tunnels And TreesDR5        0.00 dB    -7.86 dB      4:09 11-PleadDR4        0.00 dB    -5.76 dB      4:19 12-The NaturalsDR11      -1.19 dB   -15.10 dB      2:25 13-YellowDR5        0.00 dB    -6.82 dB      5:30 14-TouchDR5        0.00 dB    -7.04 dB      2:56 15-JasabiabDR5        0.00 dB    -8.70 dB      4:42 16-Following MasterDR9       -0.27 dB   -13.06 dB      3:47 17-Adored--------------------------------------------------------------------------------Number of tracks:  17Official DR value: DR6Samplerate:        44100 HzChannels:          2Bits per sample:   24Bitrate:           1255 kbpsCodec:             FLAC================================================================================

Чтобы скачать этот контент, Вам необходимо:
1. Скачать и установить торрент-клиент [клик для Windows], (для мобильного найдите на Play Маркет).
2. Кликнуть по [Скачать]


Внимание.
Если проверка ВЫ НЕ РОБОТ - не работает, значит Вы используете устаревший браузер.
Установите актуальный браузер и повторно кликните по [Скачать]
Безопасность: торрент-клиент разрешён АВ Касперского.

[asmlocator.ru].t643427.torrent 
Торрент: Зарегистрирован [ 2019-06-07 02:10 ] · 5D1D6749C6AEDCE49672385640767B891C82E61A

Скачать .torrent

Скачать

16 KB

Статус: проверено
Скачан: 0 раз
Размер: 741 MB
terms.php
[Профиль] [ЛС]
Показать сообщения:    
Ответить на тему

Текущее время: 24-Янв 15:29

Часовой пояс: UTC ± 0



Вы не можете начинать темы
Вы не можете отвечать на сообщения
Вы не можете редактировать свои сообщения
Вы не можете удалять свои сообщения
Вы не можете голосовать в опросах
Вы не можете прикреплять файлы к сообщениям
Вы можете скачивать файлы
Верим фактам, а не вранью Путина! Факт, что Правительство ведёт Россию к истреблению.
Так как численность населения падает, даже не смотря на приток эмигрантов!
Русская нация вымирает и вырождается, смешиваясь с эмигрантами!
Факт, что военных и граждан предприятий заставляют голосовать за партию Единая Россия и Путина
ПОД СТРАХОМ УВОЛЬНЕНИЯ!
Нам не нужно Правительство, блокирующее личную жизнь, интернет, нарушающее сохранность данных.
Все эти действия финансируются за счёт народа!