[TR24][OF] Bear McCreary - Годзилла 2: Король монстров / Godzilla: King of the Monsters - 2019 (Score)

Reply to topic
DL-List and Torrent activity
Size:  979 MB   |    Registered:  2 months 16 days   |    Completed:  0 times

Seeder not seen: Never

 
   
 
 
Author Message

star21 ®

Gender: Female

Longevity: 3 years 9 months

Posts: 551989

Location: Екатеринбург

Post 07-Jun-2019 02:10

[Quote]

Bear McCreary / Годзилла 2: Король монстров / Godzilla: King of the Monsters Формат записи/Источник записи: [TR24][OF]
Наличие водяных знаков: Нет
Год издания/переиздания диска: 2019
Жанр: Score
Издатель (лейбл): WaterTower Music
Продолжительность: 01:37:33
Наличие сканов в содержимом раздачи: Только обложка альбомаТреклист:
01. Godzilla (feat. Serj Tankian) (3:10)
02. Godzilla Main Title (2:35)
03. Memories of San Francisco (2:11)
04. The Larva (4:23)
05. Welcome to Monarch (2:54)
06. Outpost 32 (7:03)
07. Ice Breaker (2:33)
08. Rise of Ghidorah (2:59)
09. Old Rivals (3:50)
10. The First Gods (5:19)
11. Rodan (5:24)
12. A Mass Awakening (5:33)
13. The One Who is Many (5:37)
14. Queen Of the Monsters (3:36)
15. For Andrew (1:19)
16. Stealing The Orca (3:04)
17. The Hollow Earth (5:25)
18. The Key to Coexistence (2:18)
19. Goodbye Old Friend (2:54)
20. Rebirth (2:03)
21. Fog Over Fenway (2:53)
22. Battle in Boston (7:51)
23. Redemption (4:12)
24. King of the Monsters (3:34)
25. Ghidorah Theme (2:42)
26. Mothra's Song (2:10)Контейнер: FLAC (*.flac)
Тип рипа: tracksРазрядность: 24/44,1
Формат: PCM
Количество каналов: 2.0

Лог проверки качества

foobar2000 1.4.4 / Dynamic Range Meter 1.1.1log date: 2019-05-25 18:46:24--------------------------------------------------------------------------------Analyzed: Bear McCreary feat. Serj Tankian / Godzilla: King of the Monsters (Original Motion Picture Soundtrack) (1)          Bear McCreary / Godzilla: King of the Monsters (Original Motion Picture Soundtrack) (2-26)--------------------------------------------------------------------------------DR         Peak         RMS     Duration Track--------------------------------------------------------------------------------DR5       -0.22 dB    -7.95 dB      3:10 01-GodzillaDR7       -0.42 dB   -10.97 dB      2:35 02-Godzilla Main TitleDR11      -0.48 dB   -17.91 dB      2:11 03-Memories of San FranciscoDR9       -0.44 dB   -14.00 dB      4:23 04-The LarvaDR9       -0.47 dB   -14.36 dB      2:54 05-Welcome to MonarchDR7       -0.46 dB   -12.22 dB      7:03 06-Outpost 32DR7       -0.45 dB   -10.51 dB      2:33 07-Ice BreakerDR7       -0.44 dB   -10.66 dB      2:59 08-Rise of GhidorahDR8       -0.47 dB   -11.35 dB      3:50 09-Old RivalsDR13       0.00 dB   -18.11 dB      5:19 10-The First GodsDR6       -0.36 dB    -9.61 dB      5:24 11-RodanDR8       -0.49 dB   -13.30 dB      5:33 12-A Mass AwakeningDR13      -0.50 dB   -20.41 dB      5:37 13-The One Who is ManyDR8       -0.48 dB   -14.70 dB      3:36 14-Queen of the MonstersDR10      -4.47 dB   -23.35 dB      1:19 15-For AndrewDR9       -0.43 dB   -13.91 dB      3:04 16-Stealing the OrcaDR10      -0.43 dB   -15.86 dB      5:25 17-The Hollow EarthDR11      -0.50 dB   -15.76 dB      2:18 18-The Key to CoexistenceDR10      -0.50 dB   -15.71 dB      2:54 19-Goodbye Old FriendDR8       -0.47 dB   -12.80 dB      2:03 20-RebirthDR7       -0.46 dB   -11.42 dB      2:53 21-Fog Over FenwayDR7       -0.43 dB   -11.26 dB      7:51 22-Battle in BostonDR9       -0.49 dB   -14.25 dB      4:12 23-RedemptionDR7       -0.44 dB   -10.10 dB      3:34 24-King of the MonstersDR6       -0.49 dB   -10.04 dB      2:42 25-Ghidorah ThemeDR7       -0.46 dB   -11.60 dB      2:10 26-Mothra's Song--------------------------------------------------------------------------------Number of tracks:  26Official DR value: DR8Samplerate:        44100 HzChannels:          2Bits per sample:   24Bitrate:           1396 kbpsCodec:             FLAC================================================================================
Источник (релизер): qobuz

To download the content you need:
1. Download and install torrent client [for Windows] or for mobile system
2. Click on [Download]
Attention.
If the test YOU are NOT a ROBOT - does not work, then You are using an outdated browser.
Install the current browser and click on [Download]
Security: torrent client is allowed by Kaspersky.

[asmlocator.ru].t643423.torrent 
Torrent: Registered [ 2019-06-07 02:10 ] · D051DCE35F86F5ADB11C6BB38883C0DE2DFB4976

Download .torrent

Download

21 KB

Status: checked
Completed: 0 times
Size: 979 MB
terms.php
[Profile] [PM]
Display posts:    
Reply to topic

Current time is: 23-Aug 16:46

All times are UTC ± 0



You cannot post new topics in this forum
You cannot reply to topics in this forum
You cannot edit your posts in this forum
You cannot delete your posts in this forum
You cannot vote in polls in this forum
You cannot attach files in this forum
You can download files in this forum