(Bachata, Salsa) DLG (Dark Latin Groove) - Gotcha! - 1999, MP3, 320 kbps

Reply to topic
DL-List and Torrent activity
Size:  111 MB   |    Registered:  2 months 15 days   |    Completed:  0 times

Seeder not seen: Never

 
   
 
 
Author Message

star21 ®

Gender: Female

Longevity: 3 years 9 months

Posts: 551989

Location: Екатеринбург

Post 06-Jun-2019 11:00

[Quote]

DLG (Dark Latin Groove) / Gotcha! Жанр: Bachata, Salsa
Страна исполнителя (группы): US
Год издания: 1999
Аудиокодек: MP3
Тип рипа: tracks
Битрейт аудио: 320 kbps
Продолжительность: 00:48:17
Наличие сканов в содержимом раздачи: нетТреклист:
01. Volveré (4:51) [MP3, 320 Kb/s]
02. Eres Mi Vida (4:52) [MP3, 320 Kb/s]
03. Got A Hook On You (DLG Blues) (5:00) [MP3, 320 Kb/s]
04. Acuyuye (4:53) [MP3, 320 Kb/s]
05. Angeles (4:35) [MP3, 320 Kb/s]
06. A Veces Me Pregunto (4:51) [MP3, 320 Kb/s]
07. De Oro (4:34) [MP3, 320 Kb/s]
08. Prisionero (4:52) [MP3, 320 Kb/s]
09. Gotcha (5:13) [MP3, 320 Kb/s]
10. Volveré (Bachata) (4:36) [MP3, 320 Kb/s]

DR

foobar2000 1.3.17 / Замер динамического диапазона (DR) 1.1.1
Дата отчёта: 2019-06-02 21:23:00--------------------------------------------------------------------------------
Анализ: DLG / Gotcha
--------------------------------------------------------------------------------DR Пики RMS Продолжительность трека
--------------------------------------------------------------------------------
DR8 0.00 дБ -10.11 дБ 4:51 01-Volveré
DR7 0.00 дБ -8.75 дБ 4:52 02-Eres Mi Vida
DR8 0.00 дБ -9.41 дБ 5:00 03-Got A Hook On You (DLG Blues)
DR8 0.00 дБ -9.62 дБ 4:53 04-Acuyuye
DR9 0.00 дБ -10.16 дБ 4:35 05-Angeles
DR9 0.00 дБ -11.39 дБ 4:51 06-A Veces Me Pregunto
DR8 0.00 дБ -9.86 дБ 4:34 07-De Oro
DR8 0.00 дБ -9.85 дБ 4:52 08-Prisionero
DR8 -0.35 дБ -10.02 дБ 5:13 09-Gotcha
DR7 0.00 дБ -8.82 дБ 4:36 10-Volveré (Bachata)
--------------------------------------------------------------------------------Количество треков: 10
Реальные значения DR: DR8Частота: 44100 Гц
Каналов: 2
Битрейт: 320 кбит/с
Кодек: MP3
================================================================================
DLG (Dark Latin Groove)

To download the content you need:
1. Download and install torrent client [for Windows] or for mobile system
2. Click on [Download]
Attention.
If the test YOU are NOT a ROBOT - does not work, then You are using an outdated browser.
Install the current browser and click on [Download]
Security: torrent client is allowed by Kaspersky.

[asmlocator.ru].t643090.torrent 
Torrent: Registered [ 2019-06-06 11:00 ] · 135989178F7370D34682D166D13EC6600B5C9FD6

Download .torrent

Download

18 KB

Status: checked
Completed: 0 times
Size: 111 MB
terms.php
[Profile] [PM]
Display posts:    
Reply to topic

Current time is: 22-Aug 08:24

All times are UTC ± 0



You cannot post new topics in this forum
You cannot reply to topics in this forum
You cannot edit your posts in this forum
You cannot delete your posts in this forum
You cannot vote in polls in this forum
You cannot attach files in this forum
You can download files in this forum