Десять этюдов в чёрном (М. Серебрякова, Т. Кузнецова, Н. Шакин, В. Павлова, И. Миронова, Н. Чингина, О. Федорова, К. Вишнякова, М. Бондарь, В. Бададгулова) [2018, Россия, авторская анимация, WEBRip-AVC]

Reply to topic
DL-List and Torrent activity
Size:  60 MB   |    Registered:  19 days   |    Completed:  0 times

Seeder not seen: Never

 
   
 
 
Author Message

star21 ®

Gender: Female

Longevity: 3 years 7 months

Posts: 552119

Location: Екатеринбург

Post 06-Jun-2019 00:10

[Quote]

Десять этюдов в чёрномСтрана: Россия
Жанр: авторская анимация
Год выпуска: 2018
Продолжительность: 00:05:37
Перевод: не требуется
Субтитры: нетРежиссёры: Маша Серебрякова, Таня Кузнецова, Николай Шакин, Вера Павлова, Ира Миронова, Наташа Чингина, Оля Федорова, Кира Вишнякова, Маша Бондарь, Варя БададгуловаОписание: Альманах из коротких странных сюжетов от студентов независимой студии БФМ.Доп. информация: Диплом "за многообещающий и остроумный старт нового поколения кукольников" - Фестиваль анимации в Суздале (2019)Качество видео: WEBRip-AVC
Формат видео: MP4Видео: 1346 kbps, 1280х720 (16:9), 25.000 fps, AVC (High@L3.1)
Аудио: 137 kbps, 48.0 kHz, 2 channels, AAC (LC)

MediaInfo

GeneralComplete name                            : Десять этюдов в черном (2018).mp4Format                                   : MPEG-4Format profile                           : Base Media / Version 2Codec ID                                 : mp42File size                                : 59.8 MiBDuration                                 : 5mn 37sOverall bit rate mode                    : VariableOverall bit rate                         : 1 487 KbpsEncoded date                             : UTC 2018-08-07 00:09:00Tagged date                              : UTC 2018-08-07 00:09:00VideoID                                       : 1Format                                   : AVCFormat/Info                              : Advanced Video CodecFormat profile                           : High@L3.2Format settings, CABAC                   : YesFormat settings, ReFrames                : 5 framesCodec ID                                 : avc1Codec ID/Info                            : Advanced Video CodingDuration                                 : 5mn 37sBit rate                                 : 1 346 KbpsWidth                                    : 1 280 pixelsHeight                                   : 720 pixelsDisplay aspect ratio                     : 16:9Frame rate mode                          : ConstantFrame rate                               : 25.000 fpsColor space                              : YUVChroma subsampling                       : 4:2:0Bit depth                                : 8 bitsScan type                                : ProgressiveBits/(Pixel*Frame)                       : 0.058Stream size                              : 54.1 MiB (91%)Writing library                          : x264 core 155 r10 7d0ff22Encoding settings                        : cabac=1 / ref=5 / deblock=1:0:0 / analyse=0x3:0x113 / me=hex / subme=8 / psy=1 / psy_rd=1.00:0.00 / mixed_ref=1 / me_range=16 / chroma_me=1 / trellis=2 / 8x8dct=1 / cqm=0 / deadzone=21,11 / fast_pskip=1 / chroma_qp_offset=-2 / threads=22 / lookahead_threads=3 / sliced_threads=0 / nr=0 / decimate=1 / interlaced=0 / bluray_compat=0 / stitchable=1 / constrained_intra=0 / bframes=3 / b_pyramid=2 / b_adapt=2 / b_bias=0 / direct=3 / weightb=1 / open_gop=0 / weightp=2 / keyint=infinite / keyint_min=25 / scenecut=40 / intra_refresh=0 / rc_lookahead=50 / rc=crf / mbtree=1 / crf=20.0 / qcomp=0.60 / qpmin=5 / qpmax=69 / qpstep=4 / vbv_maxrate=2750 / vbv_bufsize=7500 / crf_max=0.0 / nal_hrd=none / filler=0 / ip_ratio=1.40 / aq=1:1.00Encoded date                             : UTC 2018-08-07 00:09:00Tagged date                              : UTC 2018-08-07 00:09:00Color primaries                          : BT.709Transfer characteristics                 : BT.709Matrix coefficients                      : BT.709AudioID                                       : 2Format                                   : AACFormat/Info                              : Advanced Audio CodecFormat profile                           : LCCodec ID                                 : 40Duration                                 : 5mn 37sBit rate mode                            : VariableBit rate                                 : 137 KbpsChannel(s)                               : 2 channelsChannel positions                        : Front: L RSampling rate                            : 48.0 KHzCompression mode                         : LossyStream size                              : 5.51 MiB (9%)Encoded date                             : UTC 2018-08-07 00:09:00Tagged date                              : UTC 2018-08-07 00:09:00

Скриншот c названием фильма

Скриншоты


To download the content you need:
1. Download and install torrent client [for Windows] or for mobile system
2. Click on [Download]
Attention.
If the test YOU are NOT a ROBOT - does not work, then You are using an outdated browser.
Install the current browser and click on [Download]
Security: torrent client is allowed by Kaspersky.

[asmlocator.ru].t642826.torrent 
Torrent: Registered [ 2019-06-06 00:10 ] · 66CACA6320360C6D6D1E641546EC26F8EAD95D0E

Download .torrent

Download

19 KB

Status: checked
Completed: 0 times
Size: 60 MB
terms.php
[Profile] [PM]
Display posts:    
Reply to topic

Current time is: 25-Jun 08:59

All times are UTC ± 0



You cannot post new topics in this forum
You cannot reply to topics in this forum
You cannot edit your posts in this forum
You cannot delete your posts in this forum
You cannot vote in polls in this forum
You cannot attach files in this forum
You can download files in this forum