(Pop) [CD] Rick Astley - The Best Of - 2014, FLAC (image+.cue), lossless

Reply to topic
DL-List and Torrent activity
Size:  510 MB   |    Registered:  11 days   |    Completed:  0 times

Seeder not seen: Never

 
   
 
 
Author Message

star21 ®

Gender: Female

Longevity: 3 years 7 months

Posts: 552147

Location: Екатеринбург

Post 05-Jun-2019 17:45

[Quote]

Rick Astley / The Best Of Жанр: Pop
Носитель: CD
Страна-производитель диска (релиза): EU
Год издания: 2014
Издатель (лейбл): Camden
Номер по каталогу: 88875019492
Страна исполнителя (группы): UK
Аудиокодек: FLAC (*.flac)
Тип рипа: image+.cue
Продолжительность: 01:04:40
Источник: собственный рип
Наличие сканов в содержимом раздачи: даТреклист:
01. Never Gonna Give You Up 3:33
02. Whenever You Need Somebody [Radio Edit] 3:27
03. When I Fall In Love 3:02
04. My Arms Keep Missing You 3:14
05. Together Forever 3:21
06. She Wants To Dance With Me 3:16
07. Take Me To Your Heart 3:28
08. Hold Me In Your Arms [7'' Version] 4:22
09. Cry For Help 4:04
10. Move Right Out 3:54
11. Never Knew Love 3:06
12. The Ones You Love 4:19
13. Hopelessly 3:35
14. Don't Say Goodbye 4:09
15. It Would Take A Strong Strong Man 3:38
16. I Don't Want To Lose Her 3:34
17. Together Forever [Lover's Leap Remix] 3:21
18. She Wants To Dance With Me [Watermix] 3:16

Лог создания рипа

Exact Audio Copy V1.3 from 2. September 2016Отчёт EAC об извлечении, выполненном 24. апреля 2019, 9:03Rick Astley / The Best OfДисковод: ASUS    DRW-24D5MT   Adapter: 1  ID: 1Режим чтения                 : ДостоверностьИспользование точного потока : ДаОтключение кэша аудио        : ДаИспользование указателей C2  : НетКоррекция смещения при чтении                     : 6Способность читать области Lead-in и Lead-out     : НетЗаполнение пропущенных сэмплов тишиной            : ДаУдаление блоков с тишиной в начале и конце        : НетПри вычислениях CRC использовались нулевые сэмплы : ДаИнтерфейс                                         : Встроенный Win32-интерфейс для Win NT/2000Выходной формат          : Пользовательский кодировщикВыбранный битрейт        : 896 kBit/sКачество                 : ВысокийДобавление ID3-тега      : НетУтилита сжатия           : C:\Program Files (x86)\Exact Audio Copy\flac-1.3.1-win\win64\flac.exeДополнительные параметры : -8 -V -T "ARTIST=%artist%" -T "TITLE=%title%" -T "ALBUM=%albumtitle%" -T "DATE=%year%" -T "TRACKNUMBER=%tracknr%/%numtracks%" -T "GENRE=%genre%" -T "COMMENT=%comment%" %source% -o %dest%TOC извлечённого CD     Трек |   Старт  | Длительность | Начальный сектор | Конечный сектор    ---------------------------------------------------------------------       1  |  0:00.00 |    3:32.41   |           0      |      15940       2  |  3:32.41 |    3:26.43   |       15941      |      31433       3  |  6:59.09 |    3:02.24   |       31434      |      45107       4  | 10:01.33 |    3:14.03   |       45108      |      59660       5  | 13:15.36 |    3:21.09   |       59661      |      74744       6  | 16:36.45 |    3:15.48   |       74745      |      89417       7  | 19:52.18 |    3:28.03   |       89418      |     105020       8  | 23:20.21 |    4:22.05   |      105021      |     124675       9  | 27:42.26 |    4:03.66   |      124676      |     142966      10  | 31:46.17 |    3:54.16   |      142967      |     160532      11  | 35:40.33 |    3:06.05   |      160533      |     174487      12  | 38:46.38 |    4:19.35   |      174488      |     193947      13  | 43:05.73 |    3:35.22   |      193948      |     210094      14  | 46:41.20 |    4:09.26   |      210095      |     228795      15  | 50:50.46 |    3:38.30   |      228796      |     245175      16  | 54:29.01 |    3:33.51   |      245176      |     261201      17  | 58:02.52 |    3:20.62   |      261202      |     276263      18  | 61:23.39 |    3:16.26   |      276264      |     290989Характеристики диапазона извлечения и сообщения об ошибкахВыбранный диапазон     Имя файла F:\Lossless\_DJ Stakan\Rick Astley - The Best Of.wav     Пиковый уровень 100.0 %     Скорость извлечения 6.9 X     Качество диапазона 100.0 %     CRC теста A103B846     CRC копии A103B846     Копирование... OKОшибок не произошлоAccurateRip: сводкаТрек  1  : извлечено точно (доверие 23)  [4F73AD21]  (AR v2)Трек  2  : извлечено точно (доверие 23)  [7F264927]  (AR v2)Трек  3  : извлечено точно (доверие 23)  [EC4303C8]  (AR v2)Трек  4  : извлечено точно (доверие 23)  [3753E131]  (AR v2)Трек  5  : извлечено точно (доверие 23)  [1B3D993E]  (AR v2)Трек  6  : извлечено точно (доверие 22)  [F6BE6FA4]  (AR v2)Трек  7  : извлечено точно (доверие 21)  [CA1C9B5A]  (AR v2)Трек  8  : извлечено точно (доверие 22)  [32A098E1]  (AR v2)Трек  9  : извлечено точно (доверие 20)  [3F54826A]  (AR v2)Трек 10  : извлечено точно (доверие 20)  [9B622091]  (AR v2)Трек 11  : извлечено точно (доверие 21)  [2C48F1BD]  (AR v2)Трек 12  : извлечено точно (доверие 21)  [7488CFCC]  (AR v2)Трек 13  : извлечено точно (доверие 21)  [64703E24]  (AR v2)Трек 14  : извлечено точно (доверие 22)  [6120E162]  (AR v2)Трек 15  : извлечено точно (доверие 21)  [26440B12]  (AR v2)Трек 16  : извлечено точно (доверие 22)  [3075C8CF]  (AR v2)Трек 17  : извлечено точно (доверие 20)  [846F81D8]  (AR v2)Трек 18  : извлечено точно (доверие 21)  [E8E62427]  (AR v2)Все треки извлечены точноКонец отчёта---- CUETools DB Plugin V2.1.6[CTDB TOCID: 8mdtC8eu7I1zorHa.D9EnjnHX.o-] foundSubmit result: 8mdtC8eu7I1zorHa.D9EnjnHX.o- has been confirmedTrack | CTDB Status  1   | (85/85) Accurately ripped  2   | (85/85) Accurately ripped  3   | (85/85) Accurately ripped  4   | (85/85) Accurately ripped  5   | (85/85) Accurately ripped  6   | (85/85) Accurately ripped  7   | (85/85) Accurately ripped  8   | (85/85) Accurately ripped  9   | (85/85) Accurately ripped 10   | (85/85) Accurately ripped 11   | (85/85) Accurately ripped 12   | (85/85) Accurately ripped 13   | (85/85) Accurately ripped 14   | (85/85) Accurately ripped 15   | (85/85) Accurately ripped 16   | (85/85) Accurately ripped 17   | (85/85) Accurately ripped 18   | (85/85) Accurately ripped==== Контрольная сумма отчёта 0C73F3B965AEC95A285DB2400D56F85DA6C0DBA093EF47576352687B45CA43C6 ====

Содержание индексной карты (.CUE)

REM GENRE PopREM DATE 2014REM DISCID FE0F2712REM COMMENT "ExactAudioCopy v1.3"PERFORMER "Rick Astley"TITLE "The Best Of"REM COMPOSER ""FILE "Rick Astley - The Best Of.flac" WAVE  TRACK 01 AUDIO    TITLE "Never Gonna Give You Up"    PERFORMER "Rick Astley"    REM COMPOSER ""    INDEX 01 00:00:00  TRACK 02 AUDIO    TITLE "Whenever You Need Somebody [Radio Edit]"    PERFORMER "Rick Astley"    REM COMPOSER ""    INDEX 00 03:32:20    INDEX 01 03:32:41  TRACK 03 AUDIO    TITLE "When I Fall In Love"    PERFORMER "Rick Astley"    REM COMPOSER ""    INDEX 00 06:58:64    INDEX 01 06:59:09  TRACK 04 AUDIO    TITLE "My Arms Keep Missing You"    PERFORMER "Rick Astley"    REM COMPOSER ""    INDEX 00 10:01:12    INDEX 01 10:01:33  TRACK 05 AUDIO    TITLE "Together Forever"    PERFORMER "Rick Astley"    REM COMPOSER ""    INDEX 00 13:15:15    INDEX 01 13:15:36  TRACK 06 AUDIO    TITLE "She Wants To Dance With Me"    PERFORMER "Rick Astley"    REM COMPOSER ""    INDEX 00 16:36:24    INDEX 01 16:36:45  TRACK 07 AUDIO    TITLE "Take Me To Your Heart"    PERFORMER "Rick Astley"    REM COMPOSER ""    INDEX 00 19:51:73    INDEX 01 19:52:18  TRACK 08 AUDIO    TITLE "Hold Me In Your Arms [7'' Version]"    PERFORMER "Rick Astley"    REM COMPOSER ""    INDEX 00 23:20:01    INDEX 01 23:20:21  TRACK 09 AUDIO    TITLE "Cry For Help"    PERFORMER "Rick Astley"    REM COMPOSER ""    INDEX 00 27:42:05    INDEX 01 27:42:26  TRACK 10 AUDIO    TITLE "Move Right Out"    PERFORMER "Rick Astley"    REM COMPOSER ""    INDEX 00 31:45:71    INDEX 01 31:46:17  TRACK 11 AUDIO    TITLE "Never Knew Love"    PERFORMER "Rick Astley"    REM COMPOSER ""    INDEX 00 35:40:12    INDEX 01 35:40:33  TRACK 12 AUDIO    TITLE "The Ones You Love"    PERFORMER "Rick Astley"    REM COMPOSER ""    INDEX 00 38:46:18    INDEX 01 38:46:38  TRACK 13 AUDIO    TITLE "Hopelessly"    PERFORMER "Rick Astley"    REM COMPOSER ""    INDEX 00 43:05:52    INDEX 01 43:05:73  TRACK 14 AUDIO    TITLE "Don't Say Goodbye"    PERFORMER "Rick Astley"    REM COMPOSER ""    INDEX 00 46:41:00    INDEX 01 46:41:20  TRACK 15 AUDIO    TITLE "It Would Take A Strong Strong Man"    PERFORMER "Rick Astley"    REM COMPOSER ""    INDEX 00 50:50:25    INDEX 01 50:50:46  TRACK 16 AUDIO    TITLE "I Don't Want To Lose Her"    PERFORMER "Rick Astley"    REM COMPOSER ""    INDEX 00 54:28:56    INDEX 01 54:29:01  TRACK 17 AUDIO    TITLE "Together Forever [Lover's Leap Remix]"    PERFORMER "Rick Astley"    REM COMPOSER ""    INDEX 00 58:02:32    INDEX 01 58:02:52  TRACK 18 AUDIO    TITLE "She Wants To Dance With Me [Watermix]"    PERFORMER "Rick Astley"    REM COMPOSER ""    INDEX 00 61:23:18    INDEX 01 61:23:39
Rick Astley - The Best Of - 2014, MP3, 320 kbps

To download the content you need:
1. Download and install torrent client [for Windows] or for mobile system
2. Click on [Download]
Attention.
If the test YOU are NOT a ROBOT - does not work, then You are using an outdated browser.
Install the current browser and click on [Download]
Security: torrent client is allowed by Kaspersky.

[asmlocator.ru].t642821.torrent 
Torrent: Registered [ 2019-06-05 17:45 ] · AAAE61E00AE36B4E618816898AD1330195B0024F

Download .torrent

Download

21 KB

Status: checked
Completed: 0 times
Size: 510 MB
terms.php
[Profile] [PM]
Display posts:    
Reply to topic

Current time is: 16-Jun 20:11

All times are UTC ± 0



You cannot post new topics in this forum
You cannot reply to topics in this forum
You cannot edit your posts in this forum
You cannot delete your posts in this forum
You cannot vote in polls in this forum
You cannot attach files in this forum
You can download files in this forum