(Heavy, Speed Metal) [WEB] Enforcer - Zenith - 2019, FLAC (tracks), lossless

Reply to topic
DL-List and Torrent activity
Size:  313 MB   |    Registered:  20 days   |    Completed:  2 times

Seeder not seen: 1 hour 6 minutes

 
   
 
 
Author Message

star21 ®

Gender: Female

Longevity: 3 years 7 months

Posts: 552118

Location: Екатеринбург

Post 05-Jun-2019 09:05

[Quote]

Enforcer - Zenith Жанр: Heavy, Speed Metal
Носитель: WEB
Год издания: 2019
Издатель-лейбл: Nuclear Blast
Страна исполнителя: Sweden
Аудиокодек: FLAC (*.flac)
Тип рипа: tracks
Битрейт аудио: lossless
Продолжительность: 00:46:29
Источник: Сеть
Наличие сканов: нетТреклист:01. Die for the Devil (3:12)
02. Zenith of the Black Sun (5:36)
03. Searching for You (2:53)
04. Regrets (6:00)
05. The End of a Universe (4:19)
06. Sail On (3:03)
07. One Thousand Years of Darkness (4:13)
08. Thunder and Hell (4:51)
09. Forever We Worship the Dark (5:27)
10. Ode to Death (6:57)

auCDtect

CUE Corrector v. 8.3.5 / b. 913 (Apr. 22, 2019)————————————————————————————————————————————————————————————————————————Enforcer / ZenithFolder: Enforcer - 2019 - Zenith [FLAC]Audio files:    01 Die for the Devil.flac [03:11.640; FLAC • 991 kbps • 16 bit \ 44100 Hz • stereo; 22.65 MB (23 754 418 B)]    02 Zenith of the Black Sun.flac [05:36.133; FLAC • 975 kbps • 16 bit \ 44100 Hz • stereo; 39.07 MB (40 965 246 B)]    03 Searching for You.flac [02:53.000; FLAC • 1014 kbps • 16 bit \ 44100 Hz • stereo; 20.93 MB (21 944 217 B)]    04 Regrets.flac [06:00.000; FLAC • 856 kbps • 16 bit \ 44100 Hz • stereo; 36.76 MB (38 542 612 B)]    05 The End of a Universe.flac [04:19.120; FLAC • 1023 kbps • 16 bit \ 44100 Hz • stereo; 31.61 MB (33 150 452 B)]    06 Sail On.flac [03:03.000; FLAC • 986 kbps • 16 bit \ 44100 Hz • stereo; 21.51 MB (22 556 572 B)]    07 One Thousand Years of Darkness.flac [04:12.720; FLAC • 1029 kbps • 16 bit \ 44100 Hz • stereo; 31.01 MB (32 517 485 B)]    08 Thunder and Hell.flac [04:50.507; FLAC • 840 kbps • 16 bit \ 44100 Hz • stereo; 29.10 MB (30 509 899 B)]    09 Forever We Worship the Dark.flac [05:27.173; FLAC • 962 kbps • 16 bit \ 44100 Hz • stereo; 37.53 MB (39 348 612 B)]    10 Ode to Death.flac [06:56.760; FLAC • 862 kbps • 16 bit \ 44100 Hz • stereo; 42.86 MB (44 942 988 B)]Accuracy: -m0File 01 Die for the Devil              - 100% CDDA [03:11:48]File 02 Zenith of the Black Sun        -  99% CDDA [05:36:10]File 03 Searching for You              - 100% CDDA [02:53:00]File 04 Regrets                        - 100% CDDA [06:00:00]File 05 The End of a Universe          - 100% CDDA [04:19:09]File 06 Sail On                        - 100% CDDA [03:03:00]File 07 One Thousand Years of Darkness - 100% CDDA [04:12:54]File 08 Thunder and Hell               -  99% CDDA [04:50:38]File 09 Forever We Worship the Dark    - 100% CDDA [05:27:13]File 10 Ode to Death                   - 100% CDDA [06:56:57]————— Summary: —————These tracks looks like CDDA with probability 100%.————————————————————————————————————————————————————————————————————————ANALYZER:    auCDtect: CD records authenticity detector, version 0.8.2    Copyright (c) 2004 Oleg Berngardt. All rights reserved.    Copyright (c) 2004 Alexander Djourik. All rights reserved.Time elapsed: 1 m 59 sLog created at April 24, 2019 18:13:08=== 23928FD1A8A4E93AEFDEC6E647BFBC9EE73F83631B1B915E4BB7714E1632EB8E ===

CUETools

[CUETools log; Date: 24.04.2019 18:10:16; Version: 2.1.6]Padded some input files to a frame boundary.[CTDB TOCID: WwTkgUxaK3A5LQOg9kh0y26q5qQ-] disk not present in database.[AccurateRip ID: 00105452-00840fa0-750ae60a] disk not present in database.Track Peak [ CRC32  ] [W/O NULL] --   98,8 [B4EB94A1] [BF1E9371] 01   98,8 [0742C6E4] [834E2F55] 02   98,8 [32F84916] [ECBAD3D4] 03   98,8 [97760B99] [ED156AF4] 04   98,8 [49B5D517] [BCB18570] 05   98,8 [0827B1CB] [CB1E1F87] 06   98,8 [EEA078B6] [1E785E68] 07   98,8 [599A55F3] [1E171F76] 08   98,8 [697F479B] [61E18FA4] 09   98,8 [A1556788] [7B800ACB] 10   98,8 [1FCE8BB8] [2B8ECA58]

DR

foobar2000 1.4.3 / Замер динамического диапазона (DR) 1.1.1Дата отчёта:  2019-04-24 18:10:00--------------------------------------------------------------------------------Анализ:   Enforcer / Zenith--------------------------------------------------------------------------------DR         Пики         RMS           Продолжительность трека--------------------------------------------------------------------------------DR10      -0.10 дБ   -11.48 дБ      3:12 01-Die for the DevilDR10      -0.10 дБ   -11.36 дБ      5:36 02-Zenith of the Black SunDR9       -0.10 дБ   -10.15 дБ      2:53 03-Searching for YouDR9       -0.10 дБ   -12.47 дБ      6:00 04-RegretsDR8       -0.10 дБ   -10.39 дБ      4:19 05-The End of a UniverseDR9       -0.10 дБ   -10.84 дБ      3:03 06-Sail OnDR9       -0.10 дБ   -10.20 дБ      4:13 07-One Thousand Years of DarknessDR10      -0.10 дБ   -12.56 дБ      4:51 08-Thunder and HellDR10      -0.10 дБ   -11.45 дБ      5:27 09-Forever We Worship the DarkDR9       -0.10 дБ   -11.60 дБ      6:57 10-Ode to Death--------------------------------------------------------------------------------Количество треков: 10Реальные значения DR: DR9Частота:   44100 ГцКаналов:   2Разрядность:   16Битрейт:   860 кбит/сКодек:   FLAC================================================================================

To download the content you need:
1. Download and install torrent client [for Windows] or for mobile system
2. Click on [Download]
Attention.
If the test YOU are NOT a ROBOT - does not work, then You are using an outdated browser.
Install the current browser and click on [Download]
Security: torrent client is allowed by Kaspersky.

[asmlocator.ru].t642619.torrent 
Torrent: Registered [ 2019-06-05 09:05 ] · D47FD2F812C9415A68CC0CEBEF7C861A1D2D91FD

Download .torrent

Download

13 KB

Status: checked
Completed: 2 times
Size: 313 MB
terms.php
[Profile] [PM]
Display posts:    
Reply to topic

Current time is: 25-Jun 10:41

All times are UTC ± 0



You cannot post new topics in this forum
You cannot reply to topics in this forum
You cannot edit your posts in this forum
You cannot delete your posts in this forum
You cannot vote in polls in this forum
You cannot attach files in this forum
You can download files in this forum