Top of the Pops (06/08/1987) [2019, Pop, Rock, Disco, SATRip]

Reply to topic
DL-List and Torrent activity
Size:  583 MB   |    Registered:  11 days   |    Completed:  1 time

Seeder not seen: 1 hour 7 minutes

 
   
 
 
Author Message

star21 ®

Gender: Female

Longevity: 3 years 7 months

Posts: 552148

Location: Екатеринбург

Post 05-Jun-2019 09:05

[Quote]

Top of the Pops (06/08/1987) Страна: VA
Жанр: Pop, Rock, Disco
Продолжительность: 00:29:33
Год выпуска: 2019
https://www.bbc.co.uk/programmes/m00042ky
Источник: собственный рипКачество: SATRip
Контейнер: MKV
Видео кодек: H.264
Аудио кодек: MP2
Видео: MPEG4 Video (H264) 720x540 2500 kbps 25 fps
Аудио: MP2 256kbps 48kHz 2chОписание:
Top of the Pops (TOTP) — музыкальная программа британского телевидения, выходившая на BBC и транслировавшаяся во многих странах мира. TOTP, своего рода телеверсия национального хит-парада выходила еженедельно с 1 января 1964 года по 30 июля 2006 года. Несмотря на то, что шоу официально закрыто, оно продолжает существовать в рождественской версии.

Треклист

New Order - True Faith
Linda Ronstadt & James Ingram - Somewhere Out There (Video)
Sinitta - Toy Boy
Samantha Fox - I Surrender (To The Spirit Of The Night) (Video)
Spagna - Call Me
Los Lobos - La Bamba (Video)
Stock Aitken Waterman - Roadblock (Video/Сredits)

MediaInfo:

Format : Matroska
Format version : Version 4
File size : 583 MiB
Duration : 29 min 33 s
Overall bit rate mode : Variable
Overall bit rate : 2 758 kb/s
Encoded date : UTC 2019-04-22 20:09:02
Writing application : mkvmerge v32.0.0 ('Astral Progressions') 32-bit
Writing library : libebml v1.3.7 + libmatroska v1.5.0Video
ID : 1
Format : AVC
Format/Info : Advanced Video Codec
Format profile : High@L4.1
Format settings : CABAC / 3 Ref Frames
Format settings, CABAC : Yes
Format settings, ReFrames : 3 frames
Codec ID : V_MPEG4/ISO/AVC
Duration : 29 min 33 s
Bit rate mode : Variable
Bit rate : 2 500 kb/s
Maximum bit rate : 14.0 Mb/s
Width : 720 pixels
Height : 540 pixels
Display aspect ratio : 4:3
Frame rate mode : Constant
Frame rate : 25.000 FPS
Color space : YUV
Chroma subsampling : 4:2:0
Bit depth : 8 bits
Scan type : Progressive
Bits/(Pixel*Frame) : 0.257
Stream size : 528 MiB (91%)
Writing library : x264 core 155 r2901 7d0ff22
Encoding settings : cabac=1 / ref=3 / deblock=1:0:0 / analyse=0x3:0x113 / me=hex / subme=7 / psy=1 / psy_rd=1.00:0.00 / mixed_ref=1 / me_range=16 / chroma_me=1 / trellis=1 / 8x8dct=1 / cqm=0 / deadzone=21,11 / fast_pskip=1 / chroma_qp_offset=-2 / threads=17 / lookahead_threads=2 / sliced_threads=0 / slices=4 / nr=0 / decimate=1 / interlaced=0 / bluray_compat=1 / constrained_intra=0 / bframes=3 / b_pyramid=1 / b_adapt=1 / b_bias=0 / direct=1 / weightb=1 / open_gop=1 / weightp=1 / keyint=250 / keyint_min=1 / scenecut=40 / intra_refresh=0 / rc_lookahead=40 / rc=2pass / mbtree=1 / bitrate=2500 / ratetol=1.0 / qcomp=0.60 / qpmin=0 / qpmax=69 / qpstep=4 / cplxblur=20.0 / qblur=0.5 / vbv_maxrate=14000 / vbv_bufsize=14000 / nal_hrd=vbr / filler=0 / ip_ratio=1.40 / aq=1:1.00
Default : Yes
Forced : No
Color range : Limited
Color primaries : BT.709
Transfer characteristics : BT.709
Matrix coefficients : BT.709Audio
ID : 2
Format : MPEG Audio
Format version : Version 1
Format profile : Layer 2
Codec ID : A_MPEG/L2
Codec ID/Hint : MP2
Duration : 29 min 33 s
Bit rate mode : Constant
Bit rate : 256 kb/s
Channel(s) : 2 channels
Sampling rate : 48.0 kHz
Frame rate : 41.667 FPS (1152 SPF)
Compression mode : Lossy
Stream size : 54.1 MiB (9%)
Language : Russian
Default : Yes
Forced : No

Скриншоты


To download the content you need:
1. Download and install torrent client [for Windows] or for mobile system
2. Click on [Download]
Attention.
If the test YOU are NOT a ROBOT - does not work, then You are using an outdated browser.
Install the current browser and click on [Download]
Security: torrent client is allowed by Kaspersky.

[asmlocator.ru].t642617.torrent 
Torrent: Registered [ 2019-06-05 09:05 ] · 3D60A50F1A948CFCE147EB7B5A748CCF6E2B25EC

Download .torrent

Download

12 KB

Status: checked
Completed: 1 times
Size: 583 MB
terms.php
[Profile] [PM]
Display posts:    
Reply to topic

Current time is: 16-Jun 09:42

All times are UTC ± 0



You cannot post new topics in this forum
You cannot reply to topics in this forum
You cannot edit your posts in this forum
You cannot delete your posts in this forum
You cannot vote in polls in this forum
You cannot attach files in this forum
You can download files in this forum