(Hip-House / Euro House) [MC] V.A. - Master Mix Vol.2 (Mike Platinas & Javier Ussia) - 1987, FLAC (tracks), lossless

Reply to topic
DL-List and Torrent activity
Size:  236 MB   |    Registered:  15 days   |    Completed:  0 times

Seeder not seen: Never

 
   
 
 
Author Message

star21 ®

Gender: Female

Longevity: 3 years 7 months

Posts: 552133

Location: Екатеринбург

Post 05-Jun-2019 09:05

[Quote]

Various Artists
Master Mix Vol.2 (Mike Platinas & Javier Ussia) 1987
Жанр: Hip-House / Euro House
Носитель: MC
Страна-производитель диска (релиза): Spain
Год издания: 1987
Издатель (лейбл): JUMP Records
Номер по каталогу: JUMP 0007
Страна исполнителя (группы): Europe
Аудиокодек: FLAC (*.flac)
Тип рипа: tracks
Продолжительность: 00:31:42
Источник: собственный рип
Наличие сканов в содержимом раздачи: да
Источник оцифровки: автором раздачи
Состояние кассеты: Ex
Устройство воспроизведения: Teac AD-500
АЦП: Fonestar TC-20U USB
Программа-оцифровщик: Sound Forge Pro 11.0
Обработка: Adobe Audition CS6
Формат записи: 16/44Треклист:
Side A: Mastermix Version (12:48)
A1.1 –Jeffrey Staten: Ain't No Stoppin Us Now (Rap Version)
A1.2 –Tom Hooker: Only One
A1.3 –Residents: Kaw-Liga
A1.4 –Mel & Kim: Respectable
A1.5 –Marshall Jefferson & On The House: Move Your Body
A1.6 –Raze: Let The Music Move U
A1.7 –Gary Low: Time (Time To Party)
D.J. Effects (3:22)
Side B: Mix Version (15:31)
B.1 –Monday Midnite: Do It-Bigi Bobo
B.2 –Jeffrey Staten: Ain't No Stoppin Us Now (Rap Version)
B.3 –Mel & Kim: Respectable
B.4 –Raze: Let The Music Move U
B.5 –Marshall Jefferson & On The House: Move Your BodyDJ Mix: Mike Platinas & Javier Ussia

Dynamic Range Meter

foobar2000 1.3.15 / Dynamic Range Meter 1.1.1log date: 2019-04-24 10:44:23--------------------------------------------------------------------------------Analyzed: Various Artists / Master Mix 2--------------------------------------------------------------------------------DR         Peak         RMS     Duration Track--------------------------------------------------------------------------------DR11      -0.12 dB   -12.57 dB     12:48 1/3-Mastermix VersionDR12      -0.14 dB   -14.14 dB      3:22 2/3-D.J. EffectsDR10      -0.27 dB   -12.06 dB     15:31 3/3-Mix Version--------------------------------------------------------------------------------Number of tracks:  3Official DR value: DR11Samplerate:        44100 HzChannels:          2Bits per sample:   16Bitrate:           1005 kbpsCodec:             FLAC================================================================================

Spectrum


auCDtect Task Manager

-----------------------DON'T MODIFY THIS FILE-----------------------PERFORMER: auCDtect Task Manager, ver. 1.6.0 RC1 build 1.6.0.1
Copyright (c) 2008-2010 y-soft. All rights reserved
http://y-soft.orgANALYZER: auCDtect: CD records authenticity detector, version 0.8.2
Copyright (c) 2004 Oleg Berngardt. All rights reserved.
Copyright (c) 2004 Alexander Djourik. All rights reserved.FILE: 03. Mix Version.flac
Size: 117020935 Hash: 26B659A11DD026F6FEA95DC3EC058746 Accuracy: -m8
Conclusion: CDDA 100%
Signature: 615D011D771FFA682B23BA70A783D0A8A223C816
FILE: 02. D.J. Effects.flac
Size: 22209906 Hash: B67C7123A14BA8FFD48A95134D3EF8A6 Accuracy: -m8
Conclusion: CDDA 100%
Signature: 639AED96D74C95C4388FE744202444805D84D8F3
FILE: 01. Mastermix Version.flac
Size: 96089589 Hash: 8E75196FF702EA6312864439BEAF297B Accuracy: -m8
Conclusion: CDDA 100%
Signature: 76F3C74C7764E2ADD0E531038EAF2B0375E1B143

To download the content you need:
1. Download and install torrent client [for Windows] or for mobile system
2. Click on [Download]
Attention.
If the test YOU are NOT a ROBOT - does not work, then You are using an outdated browser.
Install the current browser and click on [Download]
Security: torrent client is allowed by Kaspersky.

[asmlocator.ru].t642614.torrent 
Torrent: Registered [ 2019-06-05 09:05 ] · 236C4F7B9BCFE80F03899ABD1C8DFEDE6685AB3E

Download .torrent

Download

19 KB

Status: checked
Completed: 0 times
Size: 236 MB
terms.php
[Profile] [PM]
Display posts:    
Reply to topic

Current time is: 20-Jun 16:39

All times are UTC ± 0



You cannot post new topics in this forum
You cannot reply to topics in this forum
You cannot edit your posts in this forum
You cannot delete your posts in this forum
You cannot vote in polls in this forum
You cannot attach files in this forum
You can download files in this forum