(Metalcore/ Melodic Groove Metal) [WEB] Zephyra - Fall. Rise. Conquer. - 2019, FLAC (tracks), lossless

Reply to topic
DL-List and Torrent activity
Size:  359 MB   |    Registered:  15 days   |    Completed:  1 time

Seeder not seen: 1 hour 3 minutes

 
   
 
 
Author Message

star21 ®

Gender: Female

Longevity: 3 years 7 months

Posts: 552133

Location: Екатеринбург

Post 05-Jun-2019 09:05

[Quote]

Zephyra - Fall. Rise. Conquer. Жанр: Metalcore/ Melodic Groove Metal
Носитель: WEB
Год издания: 2019
Издатель-лейбл: Zephyra INC
Страна исполнителя: Sweden
Аудиокодек: FLAC (*.flac)
Тип рипа: tracks
Битрейт аудио: lossless
Продолжительность: 00:48:08
Источник: deezer
Наличие сканов: нетТреклист:01. Dreams Denied (4:30)
02. Fånge i Frihet (3:03)
03. Waiting for Nothing (4:40)
04. Nothing Else Matters (5:01)
05. Paper Crown (4:48)
06. After the Meltdown (4:19)
07. Svart Smärta (6:12)
08. A Letter for You (4:44)
09. My Pain (3:15)
10. Man Chooses, Slaves Obey (7:38)

auCDtect

CUE Corrector v. 8.3.5 / b. 913 (Apr. 22, 2019)————————————————————————————————————————————————————————————————————————Zephyra / Fall. Rise. Conquer.Folder: Zephyra - 2019 - Fall. Rise. Conquer [FLAC]Audio files:    01 Dreams Denied.flac [04:29.893; FLAC • 1077 kbps • 16 bit \ 44100 Hz • stereo; 34.68 MB (36 363 018 B)]    02 Fånge i Frihet.flac [03:02.627; FLAC • 1083 kbps • 16 bit \ 44100 Hz • stereo; 23.60 MB (24 742 916 B)]    03 Waiting for Nothing.flac [04:40.387; FLAC • 1036 kbps • 16 bit \ 44100 Hz • stereo; 34.65 MB (36 332 758 B)]    04 Nothing Else Matters.flac [05:00.813; FLAC • 1065 kbps • 16 bit \ 44100 Hz • stereo; 38.22 MB (40 077 713 B)]    05 Paper Crown.flac [04:48.200; FLAC • 1071 kbps • 16 bit \ 44100 Hz • stereo; 36.79 MB (38 582 111 B)]    06 After the Meltdown.flac [04:18.600; FLAC • 1064 kbps • 16 bit \ 44100 Hz • stereo; 32.82 MB (34 416 293 B)]    07 Svart Smärta.flac [06:11.880; FLAC • 1024 kbps • 16 bit \ 44100 Hz • stereo; 45.42 MB (47 630 459 B)]    08 A Letter for You.flac [04:43.853; FLAC • 1019 kbps • 16 bit \ 44100 Hz • stereo; 34.50 MB (36 177 916 B)]    09 My Pain.flac [03:14.600; FLAC • 1064 kbps • 16 bit \ 44100 Hz • stereo; 24.69 MB (25 888 413 B)]    10 Man Chooses Slaves Obey.flac [07:38.080; FLAC • 988 kbps • 16 bit \ 44100 Hz • stereo; 53.96 MB (56 585 315 B)]Accuracy: -m0File 01 Dreams Denied           - 100% CDDA [04:29:67]File 02 Fånge i Frihet          - 100% CDDA [03:02:47]File 03 Waiting for Nothing     - 100% CDDA [04:40:29]File 04 Nothing Else Matters    - 100% CDDA [05:00:61]File 05 Paper Crown             - 100% CDDA [04:48:15]File 06 After the Meltdown      - 100% CDDA [04:18:45]File 07 Svart Smärta            - 100% CDDA [06:11:66]File 08 A Letter for You        - 100% CDDA [04:43:64]File 09 My Pain                 - 100% CDDA [03:14:45]File 10 Man Chooses Slaves Obey -  95% MPEG [07:38:06]————— Summary: —————These tracks looks like CDDA with probability 100%.————————————————————————————————————————————————————————————————————————
ANALYZER:    auCDtect: CD records authenticity detector, version 0.8.2    Copyright (c) 2004 Oleg Berngardt. All rights reserved.    Copyright (c) 2004 Alexander Djourik. All rights reserved.Time elapsed: 2 m 19 sLog created at April 24, 2019 04:14:59=== 720F57DE61B8229C135799636BD8C18191C653228776753A63120A2AD98E8DE0 ===

CUETools

[CUETools log; Date: 24.04.2019 4:11:41; Version: 2.1.6]Padded some input files to a frame boundary.[CTDB TOCID: tDy4YqSQG5ocaLmNA5Xx8f0gNro-] disk not present in database.[AccurateRip ID: 00110d36-008a45f5-760b480a] disk not present in database.Track Peak [ CRC32  ] [W/O NULL] --   96,4 [E6B72D43] [CDB5A77F] 01   96,4 [29A10BB3] [526CBB83] 02   96,4 [4A3C7259] [CEE880AB] 03   96,4 [694F745C] [4CF882BF] 04   96,4 [3057BA57] [BC45E07C] 05   96,4 [E1D09FCF] [DA73EA23] 06   96,4 [F02AC859] [7B0C8194] 07   96,4 [7629B35D] [B44A5449] 08   96,4 [AE54A29A] [85503DBC] 09   96,4 [7B0B3441] [44AC663B] 10   96,4 [B2D82FF7] [58E0FAB3]

DR

foobar2000 1.4.3 / Замер динамического диапазона (DR) 1.1.1Дата отчёта:  2019-04-24 04:10:45--------------------------------------------------------------------------------Анализ:   Zephyra / Fall. Rise. Conquer.--------------------------------------------------------------------------------DR         Пики         RMS           Продолжительность трека--------------------------------------------------------------------------------DR6       -0.31 дБ    -6.72 дБ      4:30 01-Dreams DeniedDR6       -0.31 дБ    -6.96 дБ      3:03 02-Fånge i FrihetDR6       -0.31 дБ    -7.25 дБ      4:40 03-Waiting for NothingDR6       -0.31 дБ    -7.14 дБ      5:01 04-Nothing Else MattersDR5       -0.31 дБ    -6.69 дБ      4:48 05-Paper CrownDR6       -0.31 дБ    -6.87 дБ      4:19 06-After the MeltdownDR6       -0.31 дБ    -7.44 дБ      6:12 07-Svart SmärtaDR6       -0.31 дБ    -8.17 дБ      4:44 08-A Letter for YouDR6       -0.31 дБ    -6.96 дБ      3:15 09-My PainDR6       -0.31 дБ    -7.54 дБ      7:38 10-Man Chooses, Slaves Obey--------------------------------------------------------------------------------Количество треков: 10Реальные значения DR: DR6Частота:   44100 ГцКаналов:   2Разрядность:   16Битрейт:   983 кбит/сКодек:   FLAC================================================================================

To download the content you need:
1. Download and install torrent client [for Windows] or for mobile system
2. Click on [Download]
Attention.
If the test YOU are NOT a ROBOT - does not work, then You are using an outdated browser.
Install the current browser and click on [Download]
Security: torrent client is allowed by Kaspersky.

[asmlocator.ru].t642610.torrent 
Torrent: Registered [ 2019-06-05 09:05 ] · 45ECCAE17E78F37F6F6627F83D57EF3731585A46

Download .torrent

Download

15 KB

Status: checked
Completed: 1 times
Size: 359 MB
terms.php
[Profile] [PM]
Display posts:    
Reply to topic

Current time is: 20-Jun 16:38

All times are UTC ± 0



You cannot post new topics in this forum
You cannot reply to topics in this forum
You cannot edit your posts in this forum
You cannot delete your posts in this forum
You cannot vote in polls in this forum
You cannot attach files in this forum
You can download files in this forum