(Acoustic, Folk) [CD] Leo Kottke / Peter Lang / John Fahey - Leo Kottke, Peter Lang, John Fahey - 1996, FLAC (tracks+.cue), lossless

Reply to topic
DL-List and Torrent activity
Size:  205 MB   |    Registered:  2 months 12 days   |    Completed:  0 times

Seeder not seen: Never

 
   
 
 
Author Message

star21 ®

Gender: Female

Longevity: 3 years 9 months

Posts: 551989

Location: Екатеринбург

Post 05-Jun-2019 09:05

[Quote]

Leo Kottke / Peter Lang / John Fahey / Leo Kottke, Peter Lang, John Fahey Жанр: Acoustic, Folk
Носитель: CD
Страна-производитель диска (релиза): US
Год издания: 1996
Издатель (лейбл): Takoma ‎
Номер по каталогу: TAKCD-6502-2
Аудиокодек: FLAC (*.flac)
Тип рипа: tracks+.cue
Продолжительность: 00:35:29
Источник: israbox
Наличие сканов в содержимом раздачи: да
Треклист:
1 Leo Kottke - Cripple Creek 1:50
2 Leo Kottke - Ice Miner 1:51
3 Leo Kottke - Red And White 1:44
4 Leo Kottke - Anyway 2:01
5 Peter Lang - St. Charles Shuffle 2:17
6 Peter Lang - When Kings Come Home 4:46
7 Peter Lang - As I Lay Sleeping 1:58
8 Peter Lang - Thoth Song 3:11
9 John Fahey - On The Sunny Side Of The Ocean 3:51
10 John Fahey - Sunflower River Blues 5:57
11 John Fahey - Revolt Of The Dyke Brigade 2:59
12 John Fahey - In Christ There Is No East Or West 2:59

Лог создания рипа

Exact Audio Copy V1.0 beta 3 from 29. August 2011EAC extraction logfile from 17. October 2012, 12:29Fahey,Kottke,Lang / Fahey,Kottke,LangUsed drive  : hp      DVD A  DH16ABLH   Adapter: 0  ID: 1Read mode               : SecureUtilize accurate stream : YesDefeat audio cache      : YesMake use of C2 pointers : NoRead offset correction                      : 6Overread into Lead-In and Lead-Out          : NoFill up missing offset samples with silence : YesDelete leading and trailing silent blocks   : NoNull samples used in CRC calculations       : YesUsed interface                              : Native Win32 interface for Win NT & 2000Gap handling                                : Appended to previous trackUsed output format              : User Defined EncoderSelected bitrate                : 1024 kBit/sQuality                         : HighAdd ID3 tag                     : YesCommand line compressor         : C:\Program Files (x86)\Exact Audio Copy\Flac\flac.exeAdditional command line options : -8 -V -T "ARTIST=%artist%" -T "TITLE=%title%" -T "ALBUM=%albumtitle%" -T "DATE=%year%" -T "TRACKNUMBER=%tracknr%" -T "GENRE=%genre%" -T "PERFORMER=%albuminterpret%" -T "COMPOSER=%composer%" %haslyrics%--tag-from-file=LYRICS="%lyricsfile%"%haslyrics% -T "ALBUMARTIST=%albumartist%" -T "DISCNUMBER=%cdnumber%" -T "TOTALDISCS=%totalcds%" -T "TOTALTRACKS=%numtracks%" -T "COMMENT=%comment%" %source% -o %dest%TOC of the extracted CD     Track |   Start  |  Length  | Start sector | End sector    ---------------------------------------------------------        1  |  0:00.00 |  1:54.48 |         0    |     8597        2  |  1:54.48 |  1:54.72 |      8598    |    17219        3  |  3:49.45 |  1:47.53 |     17220    |    25297        4  |  5:37.23 |  2:04.40 |     25298    |    34637        5  |  7:41.63 |  2:21.30 |     34638    |    45242        6  | 10:03.18 |  4:48.57 |     45243    |    66899        7  | 14:52.00 |  2:02.73 |     66900    |    76122        8  | 16:54.73 |  3:14.20 |     76123    |    90692        9  | 20:09.18 |  3:53.72 |     90693    |   108239       10  | 24:03.15 |  6:01.25 |    108240    |   135339       11  | 30:04.40 |  3:03.13 |    135340    |   149077       12  | 33:07.53 |  2:28.27 |    149078    |   160204Track  1     Filename C:\Eac\Eac-Rips\lang\01 - Leo Kottke - Cripple Creek.wav     Pre-gap length  0:00:02.00     Peak level 95.2 %     Extraction speed 3.2 X     Track quality 100.0 %     Test CRC 2526C329     Copy CRC 2526C329     Accurately ripped (confidence 2)  [6E42200D]  (AR v2)     Copy OKTrack  2     Filename C:\Eac\Eac-Rips\lang\02 - Leo Kottke - Ice Miner.wav     Pre-gap length  0:00:02.93     Peak level 86.3 %     Extraction speed 3.5 X     Track quality 100.0 %     Test CRC FC2069C9     Copy CRC FC2069C9     Accurately ripped (confidence 2)  [A73FCC5A]  (AR v2)     Copy OKTrack  3     Filename C:\Eac\Eac-Rips\lang\03 - Leo Kottke - Red and White.wav     Pre-gap length  0:00:02.89     Peak level 85.7 %     Extraction speed 3.6 X     Track quality 100.0 %     Test CRC A5861A64     Copy CRC A5861A64     Accurately ripped (confidence 2)  [77C700BC]  (AR v2)     Copy OKTrack  4     Filename C:\Eac\Eac-Rips\lang\04 - Leo Kottke - Anyway.wav     Pre-gap length  0:00:02.53     Peak level 99.9 %     Extraction speed 3.8 X     Track quality 100.0 %     Test CRC 5BACA630     Copy CRC 5BACA630     Accurately ripped (confidence 2)  [165AF104]  (AR v2)     Copy OKTrack  5     Filename C:\Eac\Eac-Rips\lang\05 - Peter Lang - St. Charles Shuffle.wav     Pre-gap length  0:00:02.66     Peak level 77.6 %     Extraction speed 3.0 X     Track quality 99.9 %     Test CRC C0D63D6D     Copy CRC C0D63D6D     Accurately ripped (confidence 6)  [57CDC5F9]  (AR v1)     Copy OKTrack  6     Filename C:\Eac\Eac-Rips\lang\06 - Peter Lang - When Kings Come Home.wav     Pre-gap length  0:00:03.30     Peak level 87.3 %     Extraction speed 5.0 X     Track quality 100.0 %     Test CRC 0D163BC0     Copy CRC 0D163BC0     Accurately ripped (confidence 6)  [3F3866BB]  (AR v1)     Copy OKTrack  7     Filename C:\Eac\Eac-Rips\lang\07 - Peter Lang - As I Lay Sleeping.wav     Pre-gap length  0:00:01.82     Peak level 85.2 %     Extraction speed 4.5 X     Track quality 100.0 %     Test CRC 55937D1F     Copy CRC 55937D1F     Accurately ripped (confidence 6)  [ABEFAD77]  (AR v1)     Copy OKTrack  8     Filename C:\Eac\Eac-Rips\lang\08 - Peter Lang - Thoth Song.wav     Pre-gap length  0:00:03.46     Peak level 80.5 %     Extraction speed 5.1 X     Track quality 100.0 %     Test CRC B7202D1D     Copy CRC B7202D1D     Accurately ripped (confidence 2)  [889E8188]  (AR v2)     Copy OKTrack  9     Filename C:\Eac\Eac-Rips\lang\09 - John Fahey - On The Sunny Side Of The Ocean.wav     Pre-gap length  0:00:01.93     Peak level 77.0 %     Extraction speed 5.5 X     Track quality 100.0 %     Test CRC CDEE5617     Copy CRC CDEE5617     Accurately ripped (confidence 2)  [4ED1597A]  (AR v2)     Copy OKTrack 10     Filename C:\Eac\Eac-Rips\lang\10 - John Fahey - Sunflower River Blues.wav     Pre-gap length  0:00:02.22     Peak level 98.0 %     Extraction speed 6.1 X     Track quality 100.0 %     Test CRC 3D1DEE1D     Copy CRC 3D1DEE1D     Accurately ripped (confidence 2)  [CF7D3C0F]  (AR v2)     Copy OKTrack 11     Filename C:\Eac\Eac-Rips\lang\11 - John Fahey - Revolt Of The Dyke Brigade.wav     Pre-gap length  0:00:02.73     Peak level 99.4 %     Extraction speed 5.9 X     Track quality 100.0 %     Test CRC 639A11D2     Copy CRC 639A11D2     Accurately ripped (confidence 2)  [52175E44]  (AR v2)     Copy OKTrack 12     Filename C:\Eac\Eac-Rips\lang\12 - John Fahey - In Christ There Is No East Or West.wav     Pre-gap length  0:00:02.84     Peak level 73.0 %     Extraction speed 5.8 X     Track quality 100.0 %     Test CRC EFDE931E     Copy CRC EFDE931E     Accurately ripped (confidence 2)  [59C5F264]  (AR v2)     Copy OKAll tracks accurately rippedNo errors occurredEnd of status report==== Log checksum 631BDD79615CD4DFD33F7344524153971C8D5C973F1E618DEDAFDFD6CF051F4A ====------------------------------------------------------------Exact Audio Copy V1.0 beta 3 from 29. August 2011EAC extraction logfile from 17. October 2012, 12:29Fahey,Kottke,Lang / Fahey,Kottke,LangUsed drive  : hp      DVD A  DH16ABLH   Adapter: 0  ID: 1Read mode               : SecureUtilize accurate stream : YesDefeat audio cache      : YesMake use of C2 pointers : NoRead offset correction                      : 6Overread into Lead-In and Lead-Out          : NoFill up missing offset samples with silence : YesDelete leading and trailing silent blocks   : NoNull samples used in CRC calculations       : YesUsed interface                              : Native Win32 interface for Win NT & 2000Gap handling                                : Appended to previous trackUsed output format              : User Defined EncoderSelected bitrate                : 1024 kBit/sQuality                         : HighAdd ID3 tag                     : YesCommand line compressor         : C:\Program Files (x86)\Exact Audio Copy\Flac\flac.exeAdditional command line options : -8 -V -T "ARTIST=%artist%" -T "TITLE=%title%" -T "ALBUM=%albumtitle%" -T "DATE=%year%" -T "TRACKNUMBER=%tracknr%" -T "GENRE=%genre%" -T "PERFORMER=%albuminterpret%" -T "COMPOSER=%composer%" %haslyrics%--tag-from-file=LYRICS="%lyricsfile%"%haslyrics% -T "ALBUMARTIST=%albumartist%" -T "DISCNUMBER=%cdnumber%" -T "TOTALDISCS=%totalcds%" -T "TOTALTRACKS=%numtracks%" -T "COMMENT=%comment%" %source% -o %dest%TOC of the extracted CD     Track |   Start  |  Length  | Start sector | End sector    ---------------------------------------------------------        1  |  0:00.00 |  1:54.48 |         0    |     8597        2  |  1:54.48 |  1:54.72 |      8598    |    17219        3  |  3:49.45 |  1:47.53 |     17220    |    25297        4  |  5:37.23 |  2:04.40 |     25298    |    34637        5  |  7:41.63 |  2:21.30 |     34638    |    45242        6  | 10:03.18 |  4:48.57 |     45243    |    66899        7  | 14:52.00 |  2:02.73 |     66900    |    76122        8  | 16:54.73 |  3:14.20 |     76123    |    90692        9  | 20:09.18 |  3:53.72 |     90693    |   108239       10  | 24:03.15 |  6:01.25 |    108240    |   135339       11  | 30:04.40 |  3:03.13 |    135340    |   149077       12  | 33:07.53 |  2:28.27 |    149078    |   160204Track  1     Filename C:\Eac\Eac-Rips\lang\01 - Leo Kottke - Cripple Creek.wav     Pre-gap length  0:00:02.00     Peak level 95.2 %     Extraction speed 3.2 X     Track quality 100.0 %     Test CRC 2526C329     Copy CRC 2526C329     Accurately ripped (confidence 2)  [6E42200D]  (AR v2)     Copy OKTrack  2     Filename C:\Eac\Eac-Rips\lang\02 - Leo Kottke - Ice Miner.wav     Pre-gap length  0:00:02.93     Peak level 86.3 %     Extraction speed 3.5 X     Track quality 100.0 %     Test CRC FC2069C9     Copy CRC FC2069C9     Accurately ripped (confidence 2)  [A73FCC5A]  (AR v2)     Copy OKTrack  3     Filename C:\Eac\Eac-Rips\lang\03 - Leo Kottke - Red and White.wav     Pre-gap length  0:00:02.89     Peak level 85.7 %     Extraction speed 3.6 X     Track quality 100.0 %     Test CRC A5861A64     Copy CRC A5861A64     Accurately ripped (confidence 2)  [77C700BC]  (AR v2)     Copy OKTrack  4     Filename C:\Eac\Eac-Rips\lang\04 - Leo Kottke - Anyway.wav     Pre-gap length  0:00:02.53     Peak level 99.9 %     Extraction speed 3.8 X     Track quality 100.0 %     Test CRC 5BACA630     Copy CRC 5BACA630     Accurately ripped (confidence 2)  [165AF104]  (AR v2)     Copy OKTrack  5     Filename C:\Eac\Eac-Rips\lang\05 - Peter Lang - St. Charles Shuffle.wav     Pre-gap length  0:00:02.66     Peak level 77.6 %     Extraction speed 3.0 X     Track quality 99.9 %     Test CRC C0D63D6D     Copy CRC C0D63D6D     Accurately ripped (confidence 6)  [57CDC5F9]  (AR v1)     Copy OKTrack  6     Filename C:\Eac\Eac-Rips\lang\06 - Peter Lang - When Kings Come Home.wav     Pre-gap length  0:00:03.30     Peak level 87.3 %     Extraction speed 5.0 X     Track quality 100.0 %     Test CRC 0D163BC0     Copy CRC 0D163BC0     Accurately ripped (confidence 6)  [3F3866BB]  (AR v1)     Copy OKTrack  7     Filename C:\Eac\Eac-Rips\lang\07 - Peter Lang - As I Lay Sleeping.wav     Pre-gap length  0:00:01.82     Peak level 85.2 %     Extraction speed 4.5 X     Track quality 100.0 %     Test CRC 55937D1F     Copy CRC 55937D1F     Accurately ripped (confidence 6)  [ABEFAD77]  (AR v1)     Copy OKTrack  8     Filename C:\Eac\Eac-Rips\lang\08 - Peter Lang - Thoth Song.wav     Pre-gap length  0:00:03.46     Peak level 80.5 %     Extraction speed 5.1 X     Track quality 100.0 %     Test CRC B7202D1D     Copy CRC B7202D1D     Accurately ripped (confidence 2)  [889E8188]  (AR v2)     Copy OKTrack  9     Filename C:\Eac\Eac-Rips\lang\09 - John Fahey - On The Sunny Side Of The Ocean.wav     Pre-gap length  0:00:01.93     Peak level 77.0 %     Extraction speed 5.5 X     Track quality 100.0 %     Test CRC CDEE5617     Copy CRC CDEE5617     Accurately ripped (confidence 2)  [4ED1597A]  (AR v2)     Copy OKTrack 10     Filename C:\Eac\Eac-Rips\lang\10 - John Fahey - Sunflower River Blues.wav     Pre-gap length  0:00:02.22     Peak level 98.0 %     Extraction speed 6.1 X     Track quality 100.0 %     Test CRC 3D1DEE1D     Copy CRC 3D1DEE1D     Accurately ripped (confidence 2)  [CF7D3C0F]  (AR v2)     Copy OKTrack 11     Filename C:\Eac\Eac-Rips\lang\11 - John Fahey - Revolt Of The Dyke Brigade.wav     Pre-gap length  0:00:02.73     Peak level 99.4 %     Extraction speed 5.9 X     Track quality 100.0 %     Test CRC 639A11D2     Copy CRC 639A11D2     Accurately ripped (confidence 2)  [52175E44]  (AR v2)     Copy OKTrack 12     Filename C:\Eac\Eac-Rips\lang\12 - John Fahey - In Christ There Is No East Or West.wav     Pre-gap length  0:00:02.84     Peak level 73.0 %     Extraction speed 5.8 X     Track quality 100.0 %     Test CRC EFDE931E     Copy CRC EFDE931E     Accurately ripped (confidence 2)  [59C5F264]  (AR v2)     Copy OKAll tracks accurately rippedNo errors occurredEnd of status report==== Log checksum 631BDD79615CD4DFD33F7344524153971C8D5C973F1E618DEDAFDFD6CF051F4A ====

Содержание индексной карты (.CUE)

REM GENRE FolkREM DATE 1974REM DISCID 9108580CREM COMMENT "ExactAudioCopy v1.0b3"CATALOG 0000000000000PERFORMER "Fahey,Kottke,Lang"TITLE "Fahey,Kottke,Lang"FILE "01 - Leo Kottke - Cripple Creek.wav" WAVE  TRACK 01 AUDIO    TITLE "Cripple Creek"    PERFORMER "Leo Kottke"    INDEX 01 00:00:00  TRACK 02 AUDIO    TITLE "Ice Miner"    PERFORMER "Leo Kottke"    INDEX 00 01:51:53FILE "02 - Leo Kottke - Ice Miner.wav" WAVE    INDEX 01 00:00:00  TRACK 03 AUDIO    TITLE "Red and White"    PERFORMER "Leo Kottke"    INDEX 00 01:52:05FILE "03 - Leo Kottke - Red and White.wav" WAVE    INDEX 01 00:00:00  TRACK 04 AUDIO    TITLE "Anyway"    PERFORMER "Leo Kottke"    INDEX 00 01:45:13FILE "04 - Leo Kottke - Anyway.wav" WAVE    INDEX 01 00:00:00  TRACK 05 AUDIO    TITLE "St. Charles Shuffle"    PERFORMER "Peter Lang"    INDEX 00 02:01:65FILE "05 - Peter Lang - St. Charles Shuffle.wav" WAVE    INDEX 01 00:00:00  TRACK 06 AUDIO    TITLE "When Kings Come Home"    PERFORMER "Peter Lang"    INDEX 00 02:18:07FILE "06 - Peter Lang - When Kings Come Home.wav" WAVE    INDEX 01 00:00:00  TRACK 07 AUDIO    TITLE "As I Lay Sleeping"    PERFORMER "Peter Lang"    INDEX 00 04:46:70FILE "07 - Peter Lang - As I Lay Sleeping.wav" WAVE    INDEX 01 00:00:00  TRACK 08 AUDIO    TITLE "Thoth Song"    PERFORMER "Peter Lang"    INDEX 00 01:59:38FILE "08 - Peter Lang - Thoth Song.wav" WAVE    INDEX 01 00:00:00  TRACK 09 AUDIO    TITLE "On The Sunny Side Of The Ocean"    PERFORMER "John Fahey"    INDEX 00 03:12:25FILE "09 - John Fahey - On The Sunny Side Of The Ocean.wav" WAVE    INDEX 01 00:00:00  TRACK 10 AUDIO    TITLE "Sunflower River Blues"    PERFORMER "John Fahey"    INDEX 00 03:51:55FILE "10 - John Fahey - Sunflower River Blues.wav" WAVE    INDEX 01 00:00:00  TRACK 11 AUDIO    TITLE "Revolt Of The Dyke Brigade"    PERFORMER "John Fahey"    INDEX 00 05:58:45FILE "11 - John Fahey - Revolt Of The Dyke Brigade.wav" WAVE    INDEX 01 00:00:00  TRACK 12 AUDIO    TITLE "In Christ There Is No East Or West"    PERFORMER "John Fahey"    INDEX 00 03:00:25FILE "12 - John Fahey - In Christ There Is No East Or West.wav" WAVE    INDEX 01 00:00:00

To download the content you need:
1. Download and install torrent client [for Windows] or for mobile system
2. Click on [Download]
Attention.
If the test YOU are NOT a ROBOT - does not work, then You are using an outdated browser.
Install the current browser and click on [Download]
Security: torrent client is allowed by Kaspersky.

[asmlocator.ru].t642606.torrent 
Torrent: Registered [ 2019-06-05 09:05 ] · 59FD3166FD7907A51549AB48F953F65CA868104F

Download .torrent

Download

18 KB

Status: checked
Completed: 0 times
Size: 205 MB
terms.php
[Profile] [PM]
Display posts:    
Reply to topic

Current time is: 17-Aug 11:52

All times are UTC ± 0



You cannot post new topics in this forum
You cannot reply to topics in this forum
You cannot edit your posts in this forum
You cannot delete your posts in this forum
You cannot vote in polls in this forum
You cannot attach files in this forum
You can download files in this forum