(Techno, Ambient, Experimental, Electronic) [CD] Laurel Halo - DJ-Kicks: Laurel Halo - 2019, FLAC (image+.cue), lossless

Reply to topic
DL-List and Torrent activity
Size:  355 MB   |    Registered:  17 days   |    Completed:  0 times

Seeder not seen: Never

 
   
 
 
Author Message

star21 ®

Gender: Female

Longevity: 3 years 7 months

Posts: 552133

Location: Екатеринбург

Post 03-Jun-2019 15:25

[Quote]

Laurel Halo / DJ-Kicks: Laurel Halo Жанр: Techno, Ambient, Experimental, Electronic
Носитель: CD
Страна-производитель диска (релиза): Germany
Год издания: 2019
Издатель (лейбл): !K7 Records
Номер по каталогу: K7375CD / 730003737527
Страна исполнителя (группы): Germany
Аудиокодек: FLAC (*.flac)
Тип рипа: image+.cue
Продолжительность: 01:00:38
Источник: собственный рип
Наличие сканов в содержимом раздачи: нетТреклист:1. Laurel Halo – Public Art (Mixed) (01:08)
2. Stallone the Reducer – Always Hate (Mixed) (02:20)
3. Red Axes – 5 Min (Mixed) (02:09)
4. Parris – Puro Rosaceaes (Mixed) (02:07)
5. Rrose – Cricoid Pressure (Mixed) (02:49)
6. Machine Woman – Just Made Some Jazz Music (Mixed) (03:00)
7. WCC – Ana (Mixed) (02:03)
8. FIT Siegel – Penny Rut (Mixed) (01:40)
9. Yamaoka – Plastic PQ (Mixed) (02:35)
10. Siete Catorce – Canto (Mixed) (01:21)
11. Facta – Poliwhirl (Mixed) (01:23)
12. Laurel Halo – The Light Within You (Mixed) (02:43)
13. Ikonika – Bodied (OG Mix) (Mixed) (02:12)
14. Griffit Vigo – A.C.I.D. (Electronic Gqom Mix) (Mixed) (00:42)
15. Panda Lassow – Lachowa (Mixed) (02:02)
16. Dario Zenker – Koraimer Bro (Mixed) (02:20)
17. Final Cut – Temptation (Mixed) (03:11)
18. Aos – Violent Light (Mixed) (02:15)
19. Geoffrey Landers – Brian's Having a Party (Mixed) (01:02)
20. Via Maris – Side Effects (Mixed) (02:36)
21. Laurel Halo – Oneiroi (Mixed) (01:57)
22. Nick Leon – Pelican Dub (Mixed) (01:40)
23. Stefan Ringer – Lust (Mixed) (02:16)
24. Kirk the Flirt – Loser (Mixed) (01:08)
25. Laurel Halo – Sweetie (DJ-Kicks) (Mixed) (03:30)
26. Blake Baxter – Funky World (Blake Baxter Remix) (Mixed) (02:37)
27. Kiki Kudo – Freakey Ke Ke (Mixed) (01:10)
28. group A – Ketabali (Mixed) (02:50)
29. The Whitefield Brothers – Ntu (Mixed) (01:39)

Лог создания рипа

Exact Audio Copy V1.3 from 2. September 2016Отчёт EAC об извлечении, выполненном 27. мая 2019, 20:42Laurel Halo / DJ-Kicks: Laurel HaloДисковод: PLDS    DVD-RW DA8AESH   Adapter: 1  ID: 0Режим чтения                 : ДостоверностьИспользование точного потока : ДаОтключение кэша аудио        : ДаИспользование указателей C2  : НетКоррекция смещения при чтении                     : 6Способность читать области Lead-in и Lead-out     : НетЗаполнение пропущенных сэмплов тишиной            : ДаУдаление блоков с тишиной в начале и конце        : НетПри вычислениях CRC использовались нулевые сэмплы : ДаИнтерфейс                                         : Встроенный Win32-интерфейс для Win NT/2000Выходной формат          : Пользовательский кодировщикВыбранный битрейт        : 1024 kBit/sКачество                 : ВысокийДобавление ID3-тега      : НетУтилита сжатия           : C:\Program Files\Exact Audio Copy\Flac\flac.exeДополнительные параметры : -8 -V -T "ARTIST=%artist%" -T "TITLE=%title%" -T "ALBUM=%albumtitle%" -T "DATE=%year%" -T "TRACKNUMBER=%tracknr%" -T "GENRE=%genre%" -T "PERFORMER=%albuminterpret%" -T "COMPOSER=%composer%" %haslyrics%--tag-from-file=LYRICS="%lyricsfile%"%haslyrics% -T "ALBUMARTIST=%albumartist%" -T "DISCNUMBER=%cdnumber%" -T "TOTALDISCS=%totalcds%" -T "TOTALTRACKS=%numtracks%" -T "COMMENT=%comment%" %source% -o %dest%TOC извлечённого CD     Трек |   Старт  | Длительность | Начальный сектор | Конечный сектор    ---------------------------------------------------------------------       1  |  0:00.00 |    1:08.56   |           0      |       5155       2  |  1:08.56 |    2:20.74   |        5156      |      15729       3  |  3:29.55 |    2:09.42   |       15730      |      25446       4  |  5:39.22 |    2:07.49   |       25447      |      35020       5  |  7:46.71 |    2:49.02   |       35021      |      47697       6  | 10:35.73 |    3:00.29   |       47698      |      61226       7  | 13:36.27 |    2:03.55   |       61227      |      70506       8  | 15:40.07 |    1:40.01   |       70507      |      78007       9  | 17:20.08 |    2:35.05   |       78008      |      89637      10  | 19:55.13 |    1:21.02   |       89638      |      95714      11  | 21:16.15 |    1:23.57   |       95715      |     101996      12  | 22:39.72 |    2:43.67   |      101997      |     114288      13  | 25:23.64 |    2:12.37   |      114289      |     124225      14  | 27:36.26 |    0:42.69   |      124226      |     127444      15  | 28:19.20 |    2:02.46   |      127445      |     136640      16  | 30:21.66 |    2:20.13   |      136641      |     147153      17  | 32:42.04 |    3:11.09   |      147154      |     161487      18  | 35:53.13 |    2:15.00   |      161488      |     171612      19  | 38:08.13 |    1:02.62   |      171613      |     176324      20  | 39:11.00 |    2:36.09   |      176325      |     188033      21  | 41:47.09 |    1:57.24   |      188034      |     196832      22  | 43:44.33 |    1:40.22   |      196833      |     204354      23  | 45:24.55 |    2:16.09   |      204355      |     214563      24  | 47:40.64 |    1:08.05   |      214564      |     219668      25  | 48:48.69 |    3:30.68   |      219669      |     235486      26  | 52:19.62 |    2:37.16   |      235487      |     247277      27  | 54:57.03 |    1:10.74   |      247278      |     252601      28  | 56:08.02 |    2:50.25   |      252602      |     265376      29  | 58:58.27 |    1:39.05   |      265377      |     272806Характеристики диапазона извлечения и сообщения об ошибкахВыбранный диапазон     Имя файла C:\Laurel Halo - DJ-Kicks Laurel Halo\Laurel Halo - DJ-Kicks- Laurel Halo.wav     Пиковый уровень 88.1 %     Скорость извлечения 1.8 X     Качество диапазона 99.9 %     CRC теста F4F18463     CRC копии F4F18463     Копирование... OKОшибок не произошлоAccurateRip: сводкаТрек  1  : извлечено точно (доверие 3)  [EB28CD2A]  (AR v2)Трек  2  : извлечено точно (доверие 3)  [DBA5648B]  (AR v2)Трек  3  : извлечено точно (доверие 3)  [90A8B7A4]  (AR v2)Трек  4  : извлечено точно (доверие 3)  [17022651]  (AR v2)Трек  5  : извлечено точно (доверие 3)  [4D8A9ED9]  (AR v2)Трек  6  : извлечено точно (доверие 3)  [9DCD3DB6]  (AR v2)Трек  7  : извлечено точно (доверие 3)  [3A578237]  (AR v2)Трек  8  : извлечено точно (доверие 3)  [76D401A2]  (AR v2)Трек  9  : извлечено точно (доверие 3)  [F20D176E]  (AR v2)Трек 10  : извлечено точно (доверие 3)  [8A2B7C5C]  (AR v2)Трек 11  : извлечено точно (доверие 3)  [7688D65A]  (AR v2)Трек 12  : извлечено точно (доверие 3)  [418C0BCF]  (AR v2)Трек 13  : извлечено точно (доверие 3)  [0D6B8667]  (AR v2)Трек 14  : извлечено точно (доверие 3)  [D3355010]  (AR v2)Трек 15  : извлечено точно (доверие 3)  [AE88152E]  (AR v2)Трек 16  : извлечено точно (доверие 3)  [1DE080BA]  (AR v2)Трек 17  : извлечено точно (доверие 3)  [792D83C6]  (AR v2)Трек 18  : извлечено точно (доверие 3)  [0EC61F68]  (AR v2)Трек 19  : извлечено точно (доверие 3)  [C98F6FC9]  (AR v2)Трек 20  : извлечено точно (доверие 3)  [5B44AF90]  (AR v2)Трек 21  : извлечено точно (доверие 3)  [8710D1F3]  (AR v2)Трек 22  : извлечено точно (доверие 3)  [8C4CBFAB]  (AR v2)Трек 23  : извлечено точно (доверие 3)  [D02C8738]  (AR v2)Трек 24  : извлечено точно (доверие 3)  [4DCF4254]  (AR v2)Трек 25  : извлечено точно (доверие 3)  [F478A0C2]  (AR v2)Трек 26  : извлечено точно (доверие 3)  [581C2911]  (AR v2)Трек 27  : извлечено точно (доверие 3)  [3EBE717A]  (AR v2)Трек 28  : извлечено точно (доверие 3)  [076E8AEB]  (AR v2)Трек 29  : извлечено точно (доверие 3)  [B5BA7F04]  (AR v2)Все треки извлечены точноКонец отчёта---- CUETools DB Plugin V2.1.6[CTDB TOCID: xQwLVc0hiu2WC_F56QCG4_.WyH4-] foundSubmit result: already submittedTrack | CTDB Status  1   | (6/6) Accurately ripped  2   | (6/6) Accurately ripped  3   | (6/6) Accurately ripped  4   | (6/6) Accurately ripped  5   | (6/6) Accurately ripped  6   | (6/6) Accurately ripped  7   | (6/6) Accurately ripped  8   | (6/6) Accurately ripped  9   | (6/6) Accurately ripped 10   | (6/6) Accurately ripped 11   | (6/6) Accurately ripped 12   | (6/6) Accurately ripped 13   | (6/6) Accurately ripped 14   | (6/6) Accurately ripped 15   | (6/6) Accurately ripped 16   | (6/6) Accurately ripped 17   | (6/6) Accurately ripped 18   | (6/6) Accurately ripped 19   | (6/6) Accurately ripped 20   | (6/6) Accurately ripped 21   | (6/6) Accurately ripped 22   | (6/6) Accurately ripped 23   | (6/6) Accurately ripped 24   | (6/6) Accurately ripped 25   | (6/6) Accurately ripped 26   | (6/6) Accurately ripped 27   | (6/6) Accurately ripped 28   | (6/6) Accurately ripped 29   | (6/6) Accurately ripped==== Контрольная сумма отчёта C61366F4EFBD4789EE937C0DF630738B456AF4313B6842147E1C2494B9027F51 ====

Содержание индексной карты (.CUE)

REM GENRE ElectronicREM DATE 2019REM DISCID 8B0E351DREM COMMENT "ExactAudioCopy v1.3"PERFORMER "Laurel Halo"TITLE "DJ-Kicks: Laurel Halo"REM COMPOSER ""FILE "Laurel Halo - DJ-Kicks- Laurel Halo.flac" WAVE  TRACK 01 AUDIO    TITLE "Public Art"    PERFORMER "Laurel Halo "    REM COMPOSER ""    INDEX 01 00:00:00  TRACK 02 AUDIO    TITLE "Always Hate"    PERFORMER "Stallone the Reducer"    REM COMPOSER ""    INDEX 01 01:08:56  TRACK 03 AUDIO    TITLE "5 Min "    PERFORMER "Red Axes feat. C.A.R."    REM COMPOSER ""    INDEX 01 03:29:55  TRACK 04 AUDIO    TITLE "Puro Rosaceaes"    PERFORMER "Parris"    REM COMPOSER ""    INDEX 01 05:39:22  TRACK 05 AUDIO    TITLE "Cricoid Pressure "    PERFORMER "Rrose"    REM COMPOSER ""    INDEX 01 07:46:71  TRACK 06 AUDIO    TITLE "Just Made Some Jazz Music"    PERFORMER "Machine Woman"    REM COMPOSER ""    INDEX 01 10:35:73  TRACK 07 AUDIO    TITLE "Ana"    PERFORMER "WCC"    REM COMPOSER ""    INDEX 01 13:36:27  TRACK 08 AUDIO    TITLE "Penny Rut"    PERFORMER "FIT Siegel "    REM COMPOSER ""    INDEX 01 15:40:07  TRACK 09 AUDIO    TITLE "Plastic PQ"    PERFORMER "Yamaoka"    REM COMPOSER ""    INDEX 01 17:20:08  TRACK 10 AUDIO    TITLE "Canto "    PERFORMER "Siete Catorce"    REM COMPOSER ""    INDEX 01 19:55:13  TRACK 11 AUDIO    TITLE "Poliwhirl"    PERFORMER "Facta"    REM COMPOSER ""    INDEX 01 21:16:15  TRACK 12 AUDIO    TITLE "The Light Within You"    PERFORMER "Hodge & Laurel Halo"    REM COMPOSER ""    INDEX 01 22:39:72  TRACK 13 AUDIO    TITLE "Bodied (OG Mix)"    PERFORMER "Ikonika "    REM COMPOSER ""    INDEX 01 25:23:64  TRACK 14 AUDIO    TITLE "A.C.I.D. (Electronic Gqom Mix)"    PERFORMER "Griffit Vigo"    REM COMPOSER ""    INDEX 01 27:36:26  TRACK 15 AUDIO    TITLE "Lachowa "    PERFORMER "Panda Lassow"    REM COMPOSER ""    INDEX 01 28:19:20  TRACK 16 AUDIO    TITLE "Koraimer Bro"    PERFORMER "Dario Zenker"    REM COMPOSER ""    INDEX 01 30:21:66  TRACK 17 AUDIO    TITLE "Temptation"    PERFORMER "Final Cut"    REM COMPOSER ""    INDEX 01 32:42:04  TRACK 18 AUDIO    TITLE "Violent Light "    PERFORMER "AOS"    REM COMPOSER ""    INDEX 01 35:53:13  TRACK 19 AUDIO    TITLE "Brian's Having a Party"    PERFORMER "Geoffrey Landers "    REM COMPOSER ""    INDEX 01 38:08:13  TRACK 20 AUDIO    TITLE "Side Effects"    PERFORMER "Via Maris"    REM COMPOSER ""    INDEX 01 39:11:00  TRACK 21 AUDIO    TITLE "Oneiroi "    PERFORMER "Laurel Halo"    REM COMPOSER ""    INDEX 01 41:47:09  TRACK 22 AUDIO    TITLE "Pelican Dub"    PERFORMER "Nick Leon"    REM COMPOSER ""    INDEX 01 43:44:33  TRACK 23 AUDIO    TITLE "Lust "    PERFORMER "Stefan Ringer"    REM COMPOSER ""    INDEX 01 45:24:55  TRACK 24 AUDIO    TITLE "Loser "    PERFORMER "Kirk the Flirt "    REM COMPOSER ""    INDEX 01 47:40:64  TRACK 25 AUDIO    TITLE "Sweetie (DJ-Kicks"    PERFORMER "Laurel Halo"    REM COMPOSER ""    INDEX 01 48:48:69  TRACK 26 AUDIO    TITLE "Funky World (Blake Baxter Remix)"    PERFORMER "Blake Baxter"    REM COMPOSER ""    INDEX 01 52:19:62  TRACK 27 AUDIO    TITLE "Freakey Ke Ke"    PERFORMER "Kiki Kudo"    REM COMPOSER ""    INDEX 01 54:57:03  TRACK 28 AUDIO    TITLE "Ketabali"    PERFORMER "group A "    REM COMPOSER ""    INDEX 01 56:08:02  TRACK 29 AUDIO    TITLE " Ntu "    PERFORMER "The Whitefield Brothers"    REM COMPOSER ""    INDEX 01 58:58:27

To download the content you need:
1. Download and install torrent client [for Windows] or for mobile system
2. Click on [Download]
Attention.
If the test YOU are NOT a ROBOT - does not work, then You are using an outdated browser.
Install the current browser and click on [Download]
Security: torrent client is allowed by Kaspersky.

[asmlocator.ru].t641796.torrent 
Torrent: Registered [ 2019-06-03 15:25 ] · A98C20B821E9598706DA94A43A0CA175E2B34852

Download .torrent

Download

15 KB

Status: checked
Completed: 0 times
Size: 355 MB
terms.php
[Profile] [PM]
Display posts:    
Reply to topic

Current time is: 20-Jun 16:38

All times are UTC ± 0



You cannot post new topics in this forum
You cannot reply to topics in this forum
You cannot edit your posts in this forum
You cannot delete your posts in this forum
You cannot vote in polls in this forum
You cannot attach files in this forum
You can download files in this forum