(Electronic, Pop, Synth-Pop) [CD] Heaven 17 - Play To Win / The • Virgin • Years (10CD Box Set Edsel Records) 2019, FLAC (image+.cue), lossless

Reply to topic
DL-List and Torrent activity
Size:  4.99 GB   |    Registered:  13 days   |    Completed:  0 times

Seeder not seen: 1 hour 7 minutes

 
   
 
 
Author Message

star21 ®

Gender: Female

Longevity: 3 years 7 months

Posts: 552148

Location: Екатеринбург

Post 02-Jun-2019 15:35

[Quote]

Heaven 17 - Play To Win / The • Virgin • Years Жанр: Electronic, Pop, Synth-Pop
Носитель: Blu-spec CD
Страна-производитель диска: EU
Год издания диска: 2019
Издатель (лейбл): Edsel Records / Demon Music
Номер по каталогу: HEAVENBOX01
Страна: UK
Аудио кодек: FLAC (*.flac)
Тип рипа: image+.cue
Битрейт аудио: lossless
Продолжительность: 11:49:19
Источник (релизер): allekkss48
Наличие сканов в содержимом раздачи: даТреклист:

1981 - Penthouse And Pavement (01:17:26)

Pavement Side
01. (We Don't Need This) Fascist Groove Thang
02. Penthouse And Pavement
03. Play To Win
04. Soul Warfare
Penthouse Side
05. Geisha Boys And Temple Girls
06. Let's All Make A Bomb
07. The Height Of The Fighting
08. Song With No Name
09. We're Going To Live For A Very Long Time
Bonus Tracks A-Sides:
10. (We Don't Need This) Fascist Groove Thang (7'' Version)
11. I'm Your Money
12. Play To Win (7'' Version)
13. Penthouse And Pavement (7'' Version)
14. The Height Of The Fighting (He-La-Hu)
Bonus Tracks B-Sides:
15. The Decline Of The West / B.E.F.
16. B.E.F. Ident / B.E.F.
17. Are Everything
18. Play
19. Honeymoon In New York / B.E.F.
20. He-La-Hu

Лог создания рипа

Exact Audio Copy V1.3 from 2. September 2016EAC extraction logfile from 7. May 2019, 18:36Heaven 17 / Penthouse And PavementUsed drive  : PLEXTOR BD-R  PX-B950SA   Adapter: 1  ID: 1Read mode               : SecureUtilize accurate stream : YesDefeat audio cache      : YesMake use of C2 pointers : NoRead offset correction                      : 6Overread into Lead-In and Lead-Out          : NoFill up missing offset samples with silence : YesDelete leading and trailing silent blocks   : NoNull samples used in CRC calculations       : YesUsed interface                              : Native Win32 interface for Win NT & 2000Used output format : Internal WAV RoutinesSample format      : 44.100 Hz; 16 Bit; StereoTOC of the extracted CD     Track |   Start  |  Length  | Start sector | End sector    ---------------------------------------------------------        1  |  0:00.00 |  4:18.61 |         0    |    19410        2  |  4:18.61 |  6:22.70 |     19411    |    48130        3  | 10:41.56 |  3:36.73 |     48131    |    64403        4  | 14:18.54 |  5:01.72 |     64404    |    87050        5  | 19:20.51 |  4:33.02 |     87051    |   107527        6  | 23:53.53 |  4:07.15 |    107528    |   126067        7  | 28:00.68 |  3:00.55 |    126068    |   139622        8  | 31:01.48 |  3:35.63 |    139623    |   155810        9  | 34:37.36 |  3:21.33 |    155811    |   170918       10  | 37:58.69 |  4:09.10 |    170919    |   189603       11  | 42:08.04 |  3:32.17 |    189604    |   205520       12  | 45:40.21 |  3:24.14 |    205521    |   220834       13  | 49:04.35 |  4:04.68 |    220835    |   239202       14  | 53:09.28 |  3:05.49 |    239203    |   253126       15  | 56:15.02 |  7:17.43 |    253127    |   285944       16  | 63:32.45 |  0:35.52 |    285945    |   288621       17  | 64:08.22 |  4:27.34 |    288622    |   308680       18  | 68:35.56 |  3:35.58 |    308681    |   324863       19  | 72:11.39 |  2:14.70 |    324864    |   334983       20  | 74:26.34 |  2:59.29 |    334984    |   348437Range status and errorsSelected range     Filename C:\Users\Alex\Desktop\Lossless Galaxy ALLexxess\Heaven 17\2019 Play To Win (10CD Book Set Edsel Records)\1981 Penthouse And Pavement\Heaven 17 - Penthouse And Pavement.wav     Peak level 99.9 %     Extraction speed 8.6 X     Range quality 100.0 %     Test CRC 26880741     Copy CRC 26880741     Copy OKNo errors occurredAccurateRip summaryTrack  1  accurately ripped (confidence 5)  [AAE5F307]  (AR v2)Track  2  accurately ripped (confidence 5)  [AF926780]  (AR v2)Track  3  accurately ripped (confidence 5)  [E2E3EAB9]  (AR v2)Track  4  accurately ripped (confidence 5)  [798B6C46]  (AR v2)Track  5  accurately ripped (confidence 5)  [0CBFFD98]  (AR v2)Track  6  accurately ripped (confidence 5)  [3108963E]  (AR v2)Track  7  accurately ripped (confidence 5)  [0480E2C6]  (AR v2)Track  8  accurately ripped (confidence 5)  [7FD872AB]  (AR v2)Track  9  accurately ripped (confidence 5)  [356BED6C]  (AR v2)Track 10  accurately ripped (confidence 5)  [00FFE8B7]  (AR v2)Track 11  accurately ripped (confidence 5)  [581B873A]  (AR v2)Track 12  accurately ripped (confidence 5)  [4CD6505F]  (AR v2)Track 13  accurately ripped (confidence 5)  [4EFD4F4A]  (AR v2)Track 14  accurately ripped (confidence 5)  [CF738D1A]  (AR v2)Track 15  accurately ripped (confidence 5)  [9B56D306]  (AR v2)Track 16  accurately ripped (confidence 5)  [89E57D0B]  (AR v2)Track 17  accurately ripped (confidence 5)  [0EE8DAFD]  (AR v2)Track 18  accurately ripped (confidence 5)  [DD880878]  (AR v2)Track 19  accurately ripped (confidence 5)  [51098672]  (AR v2)Track 20  accurately ripped (confidence 5)  [4F66B383]  (AR v2)All tracks accurately rippedEnd of status report---- CUETools DB Plugin V2.1.6[CTDB TOCID: 7CeLqgqKxxW1Gi8rDgNXnYlM4Pk-] foundSubmit result: 7CeLqgqKxxW1Gi8rDgNXnYlM4Pk- has been confirmedTrack | CTDB Status  1   | (13/13) Accurately ripped  2   | (13/13) Accurately ripped  3   | (13/13) Accurately ripped  4   | (13/13) Accurately ripped  5   | (13/13) Accurately ripped  6   | (13/13) Accurately ripped  7   | (13/13) Accurately ripped  8   | (13/13) Accurately ripped  9   | (13/13) Accurately ripped 10   | (13/13) Accurately ripped 11   | (13/13) Accurately ripped 12   | (13/13) Accurately ripped 13   | (13/13) Accurately ripped 14   | (13/13) Accurately ripped 15   | (13/13) Accurately ripped 16   | (13/13) Accurately ripped 17   | (13/13) Accurately ripped 18   | (13/13) Accurately ripped 19   | (13/13) Accurately ripped 20   | (13/13) Accurately ripped==== Log checksum CF4663C27665E7625B3BFB4CC217CD1DFBB2B25FCF76C23D5BC0DF20664BCCE3 ====

Содержание индексной карты (.CUE)

REM GENRE "Electronic / Pop / Synth-Pop"REM DATE 1981REM DISCID 1E122514REM COMMENT "ExactAudioCopy v1.3"PERFORMER "Heaven 17"TITLE "Penthouse And Pavement"REM COMPOSER "Heaven 17"FILE "Heaven 17 - Penthouse And Pavement.flac" WAVE  TRACK 01 AUDIO    TITLE "(We Don't Need This) Fascist Groove Thang / Pavement Side"    PERFORMER "Heaven 17"    REM COMPOSER "Heaven 17"    FLAGS DCP    INDEX 01 00:00:00  TRACK 02 AUDIO    TITLE "Penthouse And Pavement / Pavement Side"    PERFORMER "Heaven 17"    REM COMPOSER "Heaven 17"    FLAGS DCP    INDEX 01 04:18:61  TRACK 03 AUDIO    TITLE "Play To Win / Pavement Side"    PERFORMER "Heaven 17"    REM COMPOSER "Heaven 17"    FLAGS DCP    INDEX 01 10:41:56  TRACK 04 AUDIO    TITLE "Soul Warfare / Pavement Side"    PERFORMER "Heaven 17"    REM COMPOSER "Heaven 17"    FLAGS DCP    INDEX 01 14:18:54  TRACK 05 AUDIO    TITLE "Geisha Boys And Temple Girls / Penthouse Side"    PERFORMER "Heaven 17"    REM COMPOSER "Heaven 17"    FLAGS DCP    INDEX 01 19:20:51  TRACK 06 AUDIO    TITLE "Let's All Make A Bomb / Penthouse Side"    PERFORMER "Heaven 17"    REM COMPOSER "Heaven 17"    FLAGS DCP    INDEX 01 23:53:53  TRACK 07 AUDIO    TITLE "The Height Of The Fighting / Penthouse Side"    PERFORMER "Heaven 17"    REM COMPOSER "Heaven 17"    FLAGS DCP    INDEX 01 28:00:68  TRACK 08 AUDIO    TITLE "Song With No Name / Penthouse Side"    PERFORMER "Heaven 17"    REM COMPOSER "Heaven 17"    FLAGS DCP    INDEX 01 31:01:48  TRACK 09 AUDIO    TITLE "We're Going To Live For A Very Long Time / Penthouse Side"    PERFORMER "Heaven 17"    REM COMPOSER "Heaven 17"    FLAGS DCP    INDEX 01 34:37:36  TRACK 10 AUDIO    TITLE "(We Don't Need This) Fascist Groove Thang (A-Side / 7'' Version) / Bonus Track"    PERFORMER "Heaven 17"    REM COMPOSER "Heaven 17"    FLAGS DCP    INDEX 00 37:58:06    INDEX 01 37:58:69  TRACK 11 AUDIO    TITLE "I'm Your Money (A-Side) / Bonus Track"    PERFORMER "Heaven 17"    REM COMPOSER "Heaven 17"    FLAGS DCP    INDEX 00 42:07:29    INDEX 01 42:08:04  TRACK 12 AUDIO    TITLE "Play To Win (A-Side / 7''Version) / Bonus Track"    PERFORMER "Heaven 17"    REM COMPOSER "Heaven 17"    FLAGS DCP    INDEX 00 45:39:29    INDEX 01 45:40:21  TRACK 13 AUDIO    TITLE "Penthouse And Pavement (A-Side / 7'' Version) / Bonus Track"    PERFORMER "Heaven 17"    REM COMPOSER "Heaven 17"    FLAGS DCP    INDEX 01 49:04:35  TRACK 14 AUDIO    TITLE "The Height Of The Fighting (He-La-Hu) (A-Side) / Bonus Track"    PERFORMER "Heaven 17"    REM COMPOSER "Heaven 17"    FLAGS DCP    INDEX 00 53:09:06    INDEX 01 53:09:28  TRACK 15 AUDIO    TITLE "The Decline Of The West (B-Side) / Bonus Track"    PERFORMER "Heaven 17"    REM COMPOSER "Heaven 17"    FLAGS DCP    INDEX 00 56:13:74    INDEX 01 56:15:02  TRACK 16 AUDIO    TITLE "B.E.F. Ident (B-Side) / Bonus Track"    PERFORMER "B.E.F."    REM COMPOSER "Heaven 17"    FLAGS DCP    INDEX 01 63:32:45  TRACK 17 AUDIO    TITLE "Are Everything (B-Side) / Bonus Track"    PERFORMER "B.E.F."    REM COMPOSER "Heaven 17"    FLAGS DCP    INDEX 00 64:07:49    INDEX 01 64:08:22  TRACK 18 AUDIO    TITLE "Play (B-Side) / Bonus Track"    PERFORMER "Heaven 17"    REM COMPOSER "Heaven 17"    FLAGS DCP    INDEX 00 68:35:03    INDEX 01 68:35:56  TRACK 19 AUDIO    TITLE "Honeymoon In New York (B-Side) / Bonus Track"    PERFORMER "B.E.F."    REM COMPOSER "Heaven 17"    FLAGS DCP    INDEX 00 72:11:13    INDEX 01 72:11:39  TRACK 20 AUDIO    TITLE "He-La-Hu (B-Side) / Bonus Track"    PERFORMER "Heaven 17"    REM COMPOSER "Heaven 17"    FLAGS DCP    INDEX 00 74:25:13    INDEX 01 74:26:34

Лог проверки качества

-----------------------DON'T MODIFY THIS FILE-----------------------PERFORMER: auCDtect Task Manager, ver. 1.6.0 RC1 build 1.6.0.1Copyright (c) 2008-2010 y-soft. All rights reservedhttp://y-soft.orgANALYZER: auCDtect: CD records authenticity detector, version 0.8.2Copyright (c) 2004 Oleg Berngardt. All rights reserved.Copyright (c) 2004 Alexander Djourik. All rights reserved.FILE: Heaven 17 - Penthouse And Pavement.wav  Size: 819526220 Hash: E938DFFEC7A93461CA5AE3C2F0D40E6E Accuracy: -m8  Conclusion: MPEG 95%  Signature: 59484170BDD68F25F4E54FDDEB57A85C2110E5D4FILE: Heaven 17 - Penthouse And Pavement.flac  Size: 540049259 Hash: E938DFFEC7A93461CA5AE3C2F0D40E6E Accuracy: -m8  Conclusion: MPEG 95%  Signature: F8120B682F25491219A44EBF72BEE26B2652E052

1983 - The Luxury Gap (01:09:33)

01. Crushed By The Wheels Of Industry
02. Who'll Stop The Rain
03. Let Me Go
04. Key To The World
05. Temptation
06. Come Live With Me
07. Lady Ice And Mr Hex
08. We Live So Fast
09. The Best Kept Secret
Bonus Tracks A-Sides:
10. Let Me Go (US 7'' Version)
11. Temptation (7'' Version)
12. Come Live With Me (7'' Version)
13. Crushed By The Wheels Of Industry (Part 1)
Bonus Tracks B-Sides:
14. Let Me Go (Instrumental)
15. Let's All Make A Bomb (New Version)
16. Song With No Name (New Version)
17. Crushed By The Wheels Of Industry (Part 2)

Лог создания рипа

Exact Audio Copy V1.3 from 2. September 2016EAC extraction logfile from 7. May 2019, 16:20Heaven 17 / The Luxury GapUsed drive  : PLEXTOR BD-R  PX-B950SA   Adapter: 1  ID: 1Read mode               : SecureUtilize accurate stream : YesDefeat audio cache      : YesMake use of C2 pointers : NoRead offset correction                      : 6Overread into Lead-In and Lead-Out          : NoFill up missing offset samples with silence : YesDelete leading and trailing silent blocks   : NoNull samples used in CRC calculations       : YesUsed interface                              : Native Win32 interface for Win NT & 2000Used output format : Internal WAV RoutinesSample format      : 44.100 Hz; 16 Bit; StereoTOC of the extracted CD     Track |   Start  |  Length  | Start sector | End sector    ---------------------------------------------------------        1  |  0:00.00 |  5:53.45 |         0    |    26519        2  |  5:53.45 |  3:04.10 |     26520    |    40329        3  |  8:57.55 |  4:22.02 |     40330    |    59981        4  | 13:19.57 |  3:41.08 |     59982    |    76564        5  | 17:00.65 |  3:33.35 |     76565    |    92574        6  | 20:34.25 |  4:03.12 |     92575    |   110811        7  | 24:37.37 |  3:45.18 |    110812    |   127704        8  | 28:22.55 |  3:46.60 |    127705    |   144714        9  | 32:09.40 |  5:11.11 |    144715    |   168050       10  | 37:20.51 |  4:17.52 |    168051    |   187377       11  | 41:38.28 |  3:01.65 |    187378    |   201017       12  | 44:40.18 |  3:37.34 |    201018    |   217326       13  | 48:17.52 |  3:43.55 |    217327    |   234106       14  | 52:01.32 |  4:53.57 |    234107    |   256138       15  | 56:55.14 |  5:07.68 |    256139    |   279231       16  | 62:03.07 |  4:13.65 |    279232    |   298271       17  | 66:16.72 |  3:16.26 |    298272    |   312997Range status and errorsSelected range     Filename C:\Users\Alex\Desktop\Lossless Galaxy ALLexxess\Heaven 17\2019 Play To Win (10CD Book Set Edsel Records)\1983 The Luxury Gap\Heaven 17 - The Luxury Gap.wav     Peak level 100.0 %     Extraction speed 7.6 X     Range quality 100.0 %     Test CRC 282FD7B0     Copy CRC 282FD7B0     Copy OKNo errors occurredAccurateRip summaryTrack  1  accurately ripped (confidence 5)  [4F840CE3]  (AR v2)Track  2  accurately ripped (confidence 5)  [B8656A45]  (AR v2)Track  3  accurately ripped (confidence 5)  [2B6D838C]  (AR v2)Track  4  accurately ripped (confidence 5)  [9D8A2782]  (AR v2)Track  5  accurately ripped (confidence 5)  [F84FB93C]  (AR v2)Track  6  accurately ripped (confidence 5)  [7B2D1429]  (AR v2)Track  7  accurately ripped (confidence 5)  [A2BAFC46]  (AR v2)Track  8  accurately ripped (confidence 5)  [F2375B48]  (AR v2)Track  9  accurately ripped (confidence 5)  [9607D818]  (AR v2)Track 10  accurately ripped (confidence 5)  [6C8ABA58]  (AR v2)Track 11  accurately ripped (confidence 5)  [F76CBA60]  (AR v2)Track 12  accurately ripped (confidence 5)  [C706BF3D]  (AR v2)Track 13  accurately ripped (confidence 5)  [7A7C2C65]  (AR v2)Track 14  accurately ripped (confidence 5)  [4F8C8C0E]  (AR v2)Track 15  accurately ripped (confidence 5)  [C862BE06]  (AR v2)Track 16  accurately ripped (confidence 5)  [C2306AA3]  (AR v2)Track 17  accurately ripped (confidence 5)  [DC37B06D]  (AR v2)All tracks accurately rippedEnd of status report---- CUETools DB Plugin V2.1.6[CTDB TOCID: VGeUqlFCMGCHsYYzLNzvB2mm94U-] foundSubmit result: VGeUqlFCMGCHsYYzLNzvB2mm94U- has been confirmedTrack | CTDB Status  1   | (14/14) Accurately ripped  2   | (14/14) Accurately ripped  3   | (14/14) Accurately ripped  4   | (14/14) Accurately ripped  5   | (14/14) Accurately ripped  6   | (14/14) Accurately ripped  7   | (14/14) Accurately ripped  8   | (14/14) Accurately ripped  9   | (14/14) Accurately ripped 10   | (14/14) Accurately ripped 11   | (14/14) Accurately ripped 12   | (14/14) Accurately ripped 13   | (14/14) Accurately ripped 14   | (14/14) Accurately ripped 15   | (14/14) Accurately ripped 16   | (14/14) Accurately ripped 17   | (14/14) Accurately ripped==== Log checksum 8C880B429BCBEB4C23939FABE798BF4957A7FF58CF601751DCF11CA1DF8F7ABC ====

Содержание индексной карты (.CUE)

REM GENRE "Electronic / Pop / Synth-Pop"REM DATE 1983REM DISCID EC104D11REM COMMENT "ExactAudioCopy v1.3"PERFORMER "Heaven 17"TITLE "The Luxury Gap"REM COMPOSER "Heaven 17"FILE "Heaven 17 - The Luxury Gap.flac" WAVE  TRACK 01 AUDIO    TITLE "Crushed By The Wheels Of Industry"    PERFORMER "Heaven 17"    REM COMPOSER "Heaven 17"    FLAGS DCP    INDEX 01 00:00:00  TRACK 02 AUDIO    TITLE "Who'll Stop The Rain"    PERFORMER "Heaven 17"    REM COMPOSER "Heaven 17"    FLAGS DCP    INDEX 01 05:53:45  TRACK 03 AUDIO    TITLE "Let Me Go"    PERFORMER "Heaven 17"    REM COMPOSER "Heaven 17"    FLAGS DCP    INDEX 01 08:57:55  TRACK 04 AUDIO    TITLE "Key To The World"    PERFORMER "Heaven 17"    REM COMPOSER "Heaven 17"    FLAGS DCP    INDEX 01 13:19:57  TRACK 05 AUDIO    TITLE "Temptation"    PERFORMER "Heaven 17"    REM COMPOSER "Heaven 17"    FLAGS DCP    INDEX 01 17:00:65  TRACK 06 AUDIO    TITLE "Come Live With Me"    PERFORMER "Heaven 17"    REM COMPOSER "Heaven 17"    FLAGS DCP    INDEX 01 20:34:25  TRACK 07 AUDIO    TITLE "Lady Ice And Mr Hex"    PERFORMER "Heaven 17"    REM COMPOSER "Heaven 17"    FLAGS DCP    INDEX 01 24:37:37  TRACK 08 AUDIO    TITLE "We Live So Fast"    PERFORMER "Heaven 17"    REM COMPOSER "Heaven 17"    FLAGS DCP    INDEX 01 28:22:55  TRACK 09 AUDIO    TITLE "The Best Kept Secret"    PERFORMER "Heaven 17"    REM COMPOSER "Heaven 17"    FLAGS DCP    INDEX 01 32:09:40  TRACK 10 AUDIO    TITLE "Let Me Go (A-Side / US 7' Version) / Bonus Track"    PERFORMER "Heaven 17"    REM COMPOSER "Heaven 17"    FLAGS DCP    INDEX 00 37:19:05    INDEX 01 37:20:51  TRACK 11 AUDIO    TITLE "Temptation (A-Side / 7'' Version) / Bonus Track"    PERFORMER "Heaven 17"    REM COMPOSER "Heaven 17"    FLAGS DCP    INDEX 00 41:36:55    INDEX 01 41:38:28  TRACK 12 AUDIO    TITLE "Come Live With Me (A-Side / 7'' Version) / Bonus Track"    PERFORMER "Heaven 17"    REM COMPOSER "Heaven 17"    FLAGS DCP    INDEX 00 44:39:04    INDEX 01 44:40:18  TRACK 13 AUDIO    TITLE "Crushed By The Wheels Of Industry - Part I (A-Side) / Bonus Track"    PERFORMER "Heaven 17"    REM COMPOSER "Heaven 17"    FLAGS DCP    INDEX 00 48:16:57    INDEX 01 48:17:52  TRACK 14 AUDIO    TITLE "Let Me Go (B-Side / Instrumental) / Bonus Track"    PERFORMER "Heaven 17"    REM COMPOSER "Heaven 17"    FLAGS DCP    INDEX 00 52:00:39    INDEX 01 52:01:32  TRACK 15 AUDIO    TITLE "Let's All Make A Bomb (B-Side / New Version) / Bonus Track"    PERFORMER "Heaven 17"    REM COMPOSER "Heaven 17"    FLAGS DCP    INDEX 00 56:54:42    INDEX 01 56:55:14  TRACK 16 AUDIO    TITLE "Song With No Name (B-Side / New Version) / Bonus Track"    PERFORMER "Heaven 17"    REM COMPOSER "Heaven 17"    FLAGS DCP    INDEX 01 62:03:07  TRACK 17 AUDIO    TITLE "Crushed By The Wheels Of Industry - Part II (B-Side) / Bonus Track"    PERFORMER "Heaven 17"    REM COMPOSER "Heaven 17"    FLAGS DCP    INDEX 00 66:15:15    INDEX 01 66:16:72

Лог проверки качества

-----------------------DON'T MODIFY THIS FILE-----------------------PERFORMER: auCDtect Task Manager, ver. 1.6.0 RC1 build 1.6.0.1Copyright (c) 2008-2010 y-soft. All rights reservedhttp://y-soft.orgANALYZER: auCDtect: CD records authenticity detector, version 0.8.2Copyright (c) 2004 Oleg Berngardt. All rights reserved.Copyright (c) 2004 Alexander Djourik. All rights reserved.FILE: Heaven 17 - The Luxury Gap.wav  Size: 736171340 Hash: 8FB8531A0C2408503CD38EA23A454739 Accuracy: -m8  Conclusion: CDDA 87%  Signature: 41640222200708EC0E08544BE74C3C8547F47EE2FILE: Heaven 17 - The Luxury Gap.flac  Size: 513767788 Hash: 8FB8531A0C2408503CD38EA23A454739 Accuracy: -m8  Conclusion: CDDA 87%  Signature: 3C0A12E43DB761CA96E976BDB120597F3FE97E96

1984 - How Men Are (01:08:30)

01. Five Minutes To Midnight
02. Sunset Now
03. This Is Mine
04. The Fuse
05. Shame Is On The Rocks
06. The Skin I'm In
07. Flamedown
08. Reputation
09. And That’s No Lie
Bonus Tracks A-Sides:
10. This Is Mine (7'' Version)
11. ...(And That's No Lie) (7'' Version)
Bonus Tracks B-Sides:
12. Counterforce
13. Counterforce II
14. Skin
15. Mine (Instrumental)
16. The Heaven 17 Megamix

Лог создания рипа

Exact Audio Copy V1.3 from 2. September 2016EAC extraction logfile from 6. May 2019, 19:27Heaven 17 / How Men AreUsed drive  : PLEXTOR BD-R  PX-B950SA   Adapter: 1  ID: 1Read mode               : SecureUtilize accurate stream : YesDefeat audio cache      : YesMake use of C2 pointers : NoRead offset correction                      : 6Overread into Lead-In and Lead-Out          : NoFill up missing offset samples with silence : YesDelete leading and trailing silent blocks   : NoNull samples used in CRC calculations       : YesUsed interface                              : Native Win32 interface for Win NT & 2000Used output format : Internal WAV RoutinesSample format      : 44.100 Hz; 16 Bit; StereoTOC of the extracted CD     Track |   Start  |  Length  | Start sector | End sector    ---------------------------------------------------------        1  |  0:00.00 |  3:48.19 |         0    |    17118        2  |  3:48.19 |  3:36.37 |     17119    |    33355        3  |  7:24.56 |  3:50.57 |     33356    |    50662        4  | 11:15.38 |  3:04.29 |     50663    |    64491        5  | 14:19.67 |  4:05.67 |     64492    |    82933        6  | 18:25.59 |  3:36.71 |     82934    |    99204        7  | 22:02.55 |  2:59.05 |     99205    |   112634        8  | 25:01.60 |  3:09.32 |    112635    |   126841        9  | 28:11.17 | 10:08.71 |    126842    |   172512       10  | 38:20.13 |  3:24.15 |    172513    |   187827       11  | 41:44.28 |  3:26.33 |    187828    |   203310       12  | 45:10.61 |  3:00.30 |    203311    |   216840       13  | 48:11.16 |  3:04.70 |    216841    |   230710       14  | 51:16.11 |  3:42.23 |    230711    |   247383       15  | 54:58.34 |  5:05.69 |    247384    |   270327       16  | 60:04.28 |  8:25.59 |    270328    |   308261Range status and errorsSelected range     Filename C:\Users\Alex\Desktop\Lossless Galaxy ALLexxess\Heaven 17\2019 Play To Win (10CD Book Set Edsel Records)\1984 How Men Are\Heaven 17 - How Men Are.wav     Peak level 100.0 %     Extraction speed 7.5 X     Range quality 99.9 %     Test CRC A51E4BE8     Copy CRC A51E4BE8     Copy OKNo errors occurredAccurateRip summaryTrack  1  accurately ripped (confidence 5)  [ACA2E36E]  (AR v2)Track  2  accurately ripped (confidence 5)  [0597A50E]  (AR v2)Track  3  accurately ripped (confidence 5)  [0DEA957E]  (AR v2)Track  4  accurately ripped (confidence 5)  [553D533A]  (AR v2)Track  5  accurately ripped (confidence 5)  [E038DA74]  (AR v2)Track  6  accurately ripped (confidence 5)  [7E042704]  (AR v2)Track  7  accurately ripped (confidence 5)  [CFD4B210]  (AR v2)Track  8  accurately ripped (confidence 5)  [5468143C]  (AR v2)Track  9  accurately ripped (confidence 5)  [65205751]  (AR v2)Track 10  accurately ripped (confidence 5)  [3000A228]  (AR v2)Track 11  accurately ripped (confidence 5)  [E3DA2A84]  (AR v2)Track 12  accurately ripped (confidence 5)  [7A0E8A18]  (AR v2)Track 13  accurately ripped (confidence 5)  [DD517392]  (AR v2)Track 14  accurately ripped (confidence 5)  [2C80CD38]  (AR v2)Track 15  accurately ripped (confidence 5)  [42B352A5]  (AR v2)Track 16  accurately ripped (confidence 5)  [5F152CBC]  (AR v2)All tracks accurately rippedEnd of status report---- CUETools DB Plugin V2.1.6[CTDB TOCID: SpvXQHm0ZR4hY8qX8cYURu9kYIU-] foundSubmit result: SpvXQHm0ZR4hY8qX8cYURu9kYIU- has been confirmedTrack | CTDB Status  1   | (13/13) Accurately ripped  2   | (13/13) Accurately ripped  3   | (13/13) Accurately ripped  4   | (13/13) Accurately ripped  5   | (13/13) Accurately ripped  6   | (13/13) Accurately ripped  7   | (13/13) Accurately ripped  8   | (13/13) Accurately ripped  9   | (13/13) Accurately ripped 10   | (13/13) Accurately ripped 11   | (13/13) Accurately ripped 12   | (13/13) Accurately ripped 13   | (13/13) Accurately ripped 14   | (13/13) Accurately ripped 15   | (13/13) Accurately ripped 16   | (13/13) Accurately ripped==== Log checksum 59A180F006FAC993EEAF8DBD6FDFAF9140AAF9952E4C32163FD96ECFC3863B8E ====

Содержание индексной карты (.CUE)

REM GENRE "Electronic / Pop / Synth-Pop"REM DATE 1984REM DISCID C4100E10REM COMMENT "ExactAudioCopy v1.3"PERFORMER "Heaven 17"TITLE "How Men Are"REM COMPOSER "Heaven 17"FILE "Heaven 17 - How Men Are.flac" WAVE  TRACK 01 AUDIO    TITLE "Five Minutes To Midnight"    PERFORMER "Heaven 17"    REM COMPOSER "Heaven 17"    FLAGS DCP    INDEX 01 00:00:00  TRACK 02 AUDIO    TITLE "Sunset Now"    PERFORMER "Heaven 17"    REM COMPOSER "Heaven 17"    FLAGS DCP    INDEX 01 03:48:19  TRACK 03 AUDIO    TITLE "This Is Mine"    PERFORMER "Heaven 17"    REM COMPOSER "Heaven 17"    FLAGS DCP    INDEX 01 07:24:56  TRACK 04 AUDIO    TITLE "The Fuse"    PERFORMER "Heaven 17"    REM COMPOSER "Heaven 17"    FLAGS DCP    INDEX 01 11:15:38  TRACK 05 AUDIO    TITLE "Shame Is On The Rocks"    PERFORMER "Heaven 17"    REM COMPOSER "Heaven 17"    FLAGS DCP    INDEX 01 14:19:67  TRACK 06 AUDIO    TITLE "The Skin I'm In"    PERFORMER "Heaven 17"    REM COMPOSER "Heaven 17"    FLAGS DCP    INDEX 01 18:25:59  TRACK 07 AUDIO    TITLE "Flamedown"    PERFORMER "Heaven 17"    REM COMPOSER "Heaven 17"    FLAGS DCP    INDEX 01 22:02:55  TRACK 08 AUDIO    TITLE "Reputation"    PERFORMER "Heaven 17"    REM COMPOSER "Heaven 17"    FLAGS DCP    INDEX 01 25:01:60  TRACK 09 AUDIO    TITLE "And That's No Lie"    PERFORMER "Heaven 17"    REM COMPOSER "Heaven 17"    FLAGS DCP    INDEX 01 28:11:17  TRACK 10 AUDIO    TITLE "This Is Mine (A-Side / 7'' Version) / Bonus Track"    PERFORMER "Heaven 17"    REM COMPOSER "Heaven 17"    FLAGS DCP    INDEX 00 38:18:59    INDEX 01 38:20:13  TRACK 11 AUDIO    TITLE "...(And That's No Lie) (A-Side / Edit) / Bonus Track"    PERFORMER "Heaven 17"    REM COMPOSER "Heaven 17"    FLAGS DCP    INDEX 00 41:43:38    INDEX 01 41:44:28  TRACK 12 AUDIO    TITLE "Counterforce (B-Side) / Bonus Track"    PERFORMER "Heaven 17"    REM COMPOSER "Heaven 17"    FLAGS DCP    INDEX 00 45:09:44    INDEX 01 45:10:61  TRACK 13 AUDIO    TITLE "Counterforce II (B-Side) / Bonus Track"    PERFORMER "Heaven 17"    REM COMPOSER "Heaven 17"    FLAGS DCP    INDEX 00 48:10:13    INDEX 01 48:11:16  TRACK 14 AUDIO    TITLE "Skin (B-Side) / Bonus Track"    PERFORMER "Heaven 17"    REM COMPOSER "Heaven 17"    FLAGS DCP    INDEX 00 51:14:61    INDEX 01 51:16:11  TRACK 15 AUDIO    TITLE "Mine (B-Side / Instrumental) / Bonus Track"    PERFORMER "Heaven 17"    REM COMPOSER "Heaven 17"    FLAGS DCP    INDEX 00 54:57:31    INDEX 01 54:58:34  TRACK 16 AUDIO    TITLE "The Heaven 17 Megamix (B-Side) / Bonus Track"    PERFORMER "Heaven 17"    REM COMPOSER "Heaven 17"    FLAGS DCP    INDEX 00 60:03:11    INDEX 01 60:04:28

Лог проверки качества

-----------------------DON'T MODIFY THIS FILE-----------------------PERFORMER: auCDtect Task Manager, ver. 1.6.0 RC1 build 1.6.0.1Copyright (c) 2008-2010 y-soft. All rights reservedhttp://y-soft.orgANALYZER: auCDtect: CD records authenticity detector, version 0.8.2Copyright (c) 2004 Oleg Berngardt. All rights reserved.Copyright (c) 2004 Alexander Djourik. All rights reserved.FILE: Heaven 17 - How Men Are.wav  Size: 725032268 Hash: A7D2F483625FF64B62DF842DE878A836 Accuracy: -m8  Conclusion: MPEG 95%  Signature: 7D7FB56573D7344AA9E555D08A682754701EA548FILE: Heaven 17 - How Men Are.flac  Size: 498565892 Hash: A7D2F483625FF64B62DF842DE878A836 Accuracy: -m8  Conclusion: MPEG 95%  Signature: 0C56DA95464092919E37A73B393B2C48B68B6FBC

1986 - Pleasure One (01:12:01)

01. Contenders
02. Trouble
03. Somebody
04. If I Were You
05. Low Society
06. Red
07. Look At Me
08. Move Out
09. Free
Bonus Tracks A-Sides:
10. The Foolish Thing To Do (Version 1) / Heaven 17 Featuring Jimmy Ruffin
11. Contenders (7’’ Version)
12. Counterforce
13. Trouble (7’’ Version)
Bonus Tracks B-Sides:
14. My Sensitivity (Gets In The Way) / Heaven 17 Featuring Jimmy Ruffin
15. The Foolish Thing To Do (Version 2) / Heaven 17 Featuring Jimmy Ruffin
16. The Foolish Thing To Do (Jimmy Ruffin Version / Instrumental)
17. Excerpts From 'Diary Of A Contender'

Лог создания рипа

Exact Audio Copy V1.3 from 2. September 2016EAC extraction logfile from 6. May 2019, 11:22Heaven 17 / Pleasure OneUsed drive  : PLEXTOR BD-R  PX-B950SA   Adapter: 1  ID: 1Read mode               : SecureUtilize accurate stream : YesDefeat audio cache      : YesMake use of C2 pointers : NoRead offset correction                      : 6Overread into Lead-In and Lead-Out          : NoFill up missing offset samples with silence : YesDelete leading and trailing silent blocks   : NoNull samples used in CRC calculations       : YesUsed interface                              : Native Win32 interface for Win NT & 2000Used output format : Internal WAV RoutinesSample format      : 44.100 Hz; 16 Bit; StereoTOC of the extracted CD     Track |   Start  |  Length  | Start sector | End sector    ---------------------------------------------------------        1  |  0:00.00 |  5:19.70 |         0    |    23994        2  |  5:19.70 |  4:17.64 |     23995    |    43333        3  |  9:37.59 |  4:30.36 |     43334    |    63619        4  | 14:08.20 |  3:35.01 |     63620    |    79745        5  | 17:43.21 |  3:43.54 |     79746    |    96524        6  | 21:27.00 |  4:00.40 |     96525    |   114564        7  | 25:27.40 |  5:14.30 |    114565    |   138144        8  | 30:41.70 |  3:20.00 |    138145    |   153144        9  | 34:01.70 |  6:30.54 |    153145    |   182448       10  | 40:32.49 |  3:39.56 |    182449    |   198929       11  | 44:12.30 |  4:28.16 |    198930    |   219045       12  | 48:40.46 |  3:03.43 |    219046    |   232813       13  | 51:44.14 |  4:02.35 |    232814    |   250998       14  | 55:46.49 |  3:32.73 |    250999    |   266971       15  | 59:19.47 |  3:38.70 |    266972    |   283391       16  | 62:58.42 |  3:37.39 |    283392    |   299705       17  | 66:36.06 |  5:25.29 |    299706    |   324109Range status and errorsSelected range     Filename C:\Users\Alex\Desktop\Lossless Galaxy ALLexxess\Heaven 17\2019 Play To Win (10CD Book Set Edsel Records)\1988 Teddy Bear, Duke & Psycho\Heaven 17 - Pleasure One.wav     Peak level 94.3 %     Extraction speed 8.0 X     Range quality 100.0 %     Test CRC 71F10067     Copy CRC 71F10067     Copy OKNo errors occurredAccurateRip summaryTrack  1  not present in databaseTrack  2  not present in databaseTrack  3  not present in databaseTrack  4  not present in databaseTrack  5  not present in databaseTrack  6  not present in databaseTrack  7  not present in databaseTrack  8  not present in databaseTrack  9  not present in databaseTrack 10  not present in databaseTrack 11  not present in databaseTrack 12  not present in databaseTrack 13  not present in databaseTrack 14  not present in databaseTrack 15  not present in databaseTrack 16  not present in databaseTrack 17  not present in databaseNone of the tracks are present in the AccurateRip databaseEnd of status report---- CUETools DB Plugin V2.1.6[CTDB TOCID: .vZWItFl9jjp0k1oerAhXEYxC24-] foundSubmit result: .vZWItFl9jjp0k1oerAhXEYxC24- has been confirmedTrack | CTDB Status  1   | (13/13) Accurately ripped  2   | (13/13) Accurately ripped  3   | (13/13) Accurately ripped  4   | (13/13) Accurately ripped  5   | (13/13) Accurately ripped  6   | (13/13) Accurately ripped  7   | (13/13) Accurately ripped  8   | (13/13) Accurately ripped  9   | (13/13) Accurately ripped 10   | (13/13) Accurately ripped 11   | (13/13) Accurately ripped 12   | (13/13) Accurately ripped 13   | (13/13) Accurately ripped 14   | (13/13) Accurately ripped 15   | (13/13) Accurately ripped 16   | (13/13) Accurately ripped 17   | (13/13) Accurately ripped==== Log checksum 575FCF57EB8B16BC92F016AB77C1D406ABDF212508BCFCD8E1E5EE14E9C3CDC2 ====

Содержание индексной карты (.CUE)

REM GENRE "Electronic / Pop / Synth-Pop"REM DATE 1986REM DISCID FB10E111REM COMMENT "ExactAudioCopy v1.3"PERFORMER "Heaven 17"TITLE "Pleasure One"REM COMPOSER "Heaven 17"FILE "Heaven 17 - Pleasure One.flac" WAVE  TRACK 01 AUDIO    TITLE "Contenders "    PERFORMER "Heaven 17"    REM COMPOSER "Heaven 17"    FLAGS DCP    INDEX 01 00:00:00  TRACK 02 AUDIO    TITLE "Trouble"    PERFORMER "Heaven 17"    REM COMPOSER "Heaven 17"    FLAGS DCP    INDEX 01 05:19:70  TRACK 03 AUDIO    TITLE "Somebody"    PERFORMER "Heaven 17"    REM COMPOSER "Heaven 17"    FLAGS DCP    INDEX 01 09:37:59  TRACK 04 AUDIO    TITLE "If I Were You"    PERFORMER "Heaven 17"    REM COMPOSER "Heaven 17"    FLAGS DCP    INDEX 01 14:08:20  TRACK 05 AUDIO    TITLE "Low Society"    PERFORMER "Heaven 17"    REM COMPOSER "Heaven 17"    FLAGS DCP    INDEX 01 17:43:21  TRACK 06 AUDIO    TITLE "Red"    PERFORMER "Heaven 17"    REM COMPOSER "Heaven 17"    FLAGS DCP    INDEX 01 21:27:00  TRACK 07 AUDIO    TITLE "Look At Me"    PERFORMER "Heaven 17"    REM COMPOSER "Heaven 17"    FLAGS DCP    INDEX 01 25:27:40  TRACK 08 AUDIO    TITLE "Move Out"    PERFORMER "Heaven 17"    REM COMPOSER "Heaven 17"    FLAGS DCP    INDEX 01 30:41:70  TRACK 09 AUDIO    TITLE "Free"    PERFORMER "Heaven 17"    REM COMPOSER "Heaven 17"    FLAGS DCP    INDEX 01 34:01:70  TRACK 10 AUDIO    TITLE "The Foolish Thing To Do (A-Side / Version 1) / Bonus Track"    PERFORMER "Heaven 17 feat. Jimmy Ruffin"    REM COMPOSER "Heaven 17"    FLAGS DCP    INDEX 01 40:32:49  TRACK 11 AUDIO    TITLE "Contenders (A-Side / 7'' Version) / Bonus Track"    PERFORMER "Heaven 17"    REM COMPOSER "Heaven 17"    FLAGS DCP    INDEX 00 44:11:59    INDEX 01 44:12:30  TRACK 12 AUDIO    TITLE "Contenders (A-Side / Edited Version) / Bonus Track"    PERFORMER "Heaven 17"    REM COMPOSER "Heaven 17"    FLAGS DCP    INDEX 01 48:40:46  TRACK 13 AUDIO    TITLE "Trouble (A-Side / 7'' Version) / Bonus Track"    PERFORMER "Heaven 17"    REM COMPOSER "Heaven 17"    FLAGS DCP    INDEX 00 51:43:13    INDEX 01 51:44:14  TRACK 14 AUDIO    TITLE "My Sensitivity (Gets In The Way) / (B-Side) - Bonus Track"    PERFORMER "Heaven 17 feat. Jimmy Ruffin"    REM COMPOSER "Heaven 17"    FLAGS DCP    INDEX 00 55:45:61    INDEX 01 55:46:49  TRACK 15 AUDIO    TITLE "The Foolish Thing To Do (B-Side / Version 2) / Bonus Track"    PERFORMER "Heaven 17 feat. Jimmy Ruffin"    REM COMPOSER "Heaven 17"    FLAGS DCP    INDEX 00 59:19:03    INDEX 01 59:19:47  TRACK 16 AUDIO    TITLE "The Foolish Thing To Do (B-Side / Instrumental / Jimmy Ruffin Version) - Bonu..."    PERFORMER "Heaven 17"    REM COMPOSER "Heaven 17"    FLAGS DCP    INDEX 00 62:57:37    INDEX 01 62:58:42  TRACK 17 AUDIO    TITLE "Excerpts From 'Diary Of A Contender' / Bonus Track"    PERFORMER "Heaven 17"    REM COMPOSER "Heaven 17"    FLAGS DCP    INDEX 00 66:35:42    INDEX 01 66:36:06

Лог проверки качества

-----------------------DON'T MODIFY THIS FILE-----------------------PERFORMER: auCDtect Task Manager, ver. 1.6.0 RC1 build 1.6.0.1Copyright (c) 2008-2010 y-soft. All rights reservedhttp://y-soft.orgANALYZER: auCDtect: CD records authenticity detector, version 0.8.2Copyright (c) 2004 Oleg Berngardt. All rights reserved.Copyright (c) 2004 Alexander Djourik. All rights reserved.FILE: Heaven 17 - Pleasure One.wav  Size: 762306764 Hash: A6CC526784EE1574D7A4792C5971DA88 Accuracy: -m8  Conclusion: MPEG 95%  Signature: 9434D60236DB325E46CE35403508A6F02BBE5DCCFILE: Heaven 17 - Pleasure One.flac  Size: 491023395 Hash: A6CC526784EE1574D7A4792C5971DA88 Accuracy: -m8  Conclusion: MPEG 95%  Signature: 0292917D6833437962185D3CECDF00563BA8B597

1988 - Teddy Bear, Duke & Psycho (01:11:37)

01. Big Square People
02. Don't Stop For No One
03. Snake And Two People
04. Can You Hear Me?
05. Hot Blood
06. The Ballad Of Go Go Brown
07. Dangerous
08. I Set You Free
09. Train Of Love In Motion
10. Responsibility
11. The Last Seven Days
12. The Foolish Thing To Do
Bonus Tracks A-Sides:
13. The Ballad Of Go Go Brown (Version)
14. Train Of Love In Motion (7'' Version)
Bonus Tracks B-Sides:
15. Slow All Over
16. Work
17. Giving Up

Лог создания рипа

Exact Audio Copy V1.3 from 2. September 2016EAC extraction logfile from 6. May 2019, 10:31Heaven 17 / Teddy Bear, Duke & PsychoUsed drive  : PLEXTOR BD-R  PX-B950SA   Adapter: 1  ID: 1Read mode               : SecureUtilize accurate stream : YesDefeat audio cache      : YesMake use of C2 pointers : NoRead offset correction                      : 6Overread into Lead-In and Lead-Out          : NoFill up missing offset samples with silence : YesDelete leading and trailing silent blocks   : NoNull samples used in CRC calculations       : YesUsed interface                              : Native Win32 interface for Win NT & 2000Used output format : Internal WAV RoutinesSample format      : 44.100 Hz; 16 Bit; StereoTOC of the extracted CD     Track |   Start  |  Length  | Start sector | End sector    ---------------------------------------------------------        1  |  0:00.00 |  4:29.41 |         0    |    20215        2  |  4:29.41 |  3:49.33 |     20216    |    37423        3  |  8:18.74 |  3:50.07 |     37424    |    54680        4  | 12:09.06 |  3:35.74 |     54681    |    70879        5  | 15:45.05 |  4:25.69 |     70880    |    90823        6  | 20:10.74 |  3:43.30 |     90824    |   107578        7  | 23:54.29 |  3:59.48 |    107579    |   125551        8  | 27:54.02 |  5:08.67 |    125552    |   148718        9  | 33:02.69 |  4:46.20 |    148719    |   170188       10  | 37:49.14 |  4:45.37 |    170189    |   191600       11  | 42:34.51 |  4:08.70 |    191601    |   210270       12  | 46:43.46 |  3:37.58 |    210271    |   226603       13  | 50:21.29 |  4:29.00 |    226604    |   246778       14  | 54:50.29 |  3:28.04 |    246779    |   262382       15  | 58:18.33 |  6:39.10 |    262383    |   292317       16  | 64:57.43 |  3:37.40 |    292318    |   308632       17  | 68:35.08 |  3:01.42 |    308633    |   322249Range status and errorsSelected range     Filename C:\Users\Alex\Desktop\Lossless Galaxy ALLexxess\Heaven 17\2019 Play To Win (10CD Book Set Edsel Records)\1988 Teddy Bear, Duke & Psycho\Heaven 17 - Teddy Bear, Duke & Psycho.wav     Peak level 94.3 %     Extraction speed 7.9 X     Range quality 100.0 %     Test CRC 61234554     Copy CRC 61234554     Copy OKNo errors occurredAccurateRip summaryTrack  1  not present in databaseTrack  2  not present in databaseTrack  3  not present in databaseTrack  4  not present in databaseTrack  5  not present in databaseTrack  6  not present in databaseTrack  7  not present in databaseTrack  8  not present in databaseTrack  9  not present in databaseTrack 10  not present in databaseTrack 11  not present in databaseTrack 12  not present in databaseTrack 13  not present in databaseTrack 14  not present in databaseTrack 15  not present in databaseTrack 16  not present in databaseTrack 17  not present in databaseNone of the tracks are present in the AccurateRip databaseEnd of status report---- CUETools DB Plugin V2.1.6[CTDB TOCID: AOjv24wT0gvEqHc_Aa2z5elEXMU-] foundSubmit result: AOjv24wT0gvEqHc_Aa2z5elEXMU- has been confirmedTrack | CTDB Status  1   | (12/12) Accurately ripped  2   | (12/12) Accurately ripped  3   | (12/12) Accurately ripped  4   | (12/12) Accurately ripped  5   | (12/12) Accurately ripped  6   | (12/12) Accurately ripped  7   | (12/12) Accurately ripped  8   | (12/12) Accurately ripped  9   | (12/12) Accurately ripped 10   | (12/12) Accurately ripped 11   | (12/12) Accurately ripped 12   | (12/12) Accurately ripped 13   | (12/12) Accurately ripped 14   | (12/12) Accurately ripped 15   | (12/12) Accurately ripped 16   | (12/12) Accurately ripped 17   | (12/12) Accurately ripped==== Log checksum 64DB91CF4E57A5D9C7C1084B719A54746A87967128AB49E90C7F5191E1985658 ====

Содержание индексной карты (.CUE)

REM GENRE "Electronic / Pop / Synth-Pop"REM DATE 1988REM DISCID E510C811REM COMMENT "ExactAudioCopy v1.3"PERFORMER "Heaven 17"TITLE "Teddy Bear, Duke & Psycho"REM COMPOSER "Heaven 17"FILE "Heaven 17 - Teddy Bear, Duke & Psycho.flac" WAVE  TRACK 01 AUDIO    TITLE "Big Square People"    PERFORMER "Heaven 17"    REM COMPOSER "Heaven 17"    FLAGS DCP    INDEX 01 00:00:00  TRACK 02 AUDIO    TITLE "Don't Stop For No One"    PERFORMER "Heaven 17"    REM COMPOSER "Heaven 17"    FLAGS DCP    INDEX 01 04:29:41  TRACK 03 AUDIO    TITLE "Snake And Two People"    PERFORMER "Heaven 17"    REM COMPOSER "Heaven 17"    FLAGS DCP    INDEX 01 08:18:74  TRACK 04 AUDIO    TITLE "Can You Hear Me?"    PERFORMER "Heaven 17"    REM COMPOSER "Heaven 17"    FLAGS DCP    INDEX 01 12:09:06  TRACK 05 AUDIO    TITLE "Hot Blood"    PERFORMER "Heaven 17"    REM COMPOSER "Heaven 17"    FLAGS DCP    INDEX 01 15:45:05  TRACK 06 AUDIO    TITLE "The Ballad Of Go Go Brown"    PERFORMER "Heaven 17"    REM COMPOSER "Heaven 17"    FLAGS DCP    INDEX 01 20:10:74  TRACK 07 AUDIO    TITLE "Dangerous"    PERFORMER "Heaven 17"    REM COMPOSER "Heaven 17"    FLAGS DCP    INDEX 01 23:54:29  TRACK 08 AUDIO    TITLE "I Set You Free"    PERFORMER "Heaven 17"    REM COMPOSER "Heaven 17"    FLAGS DCP    INDEX 01 27:54:02  TRACK 09 AUDIO    TITLE "Train Of Love In Motion"    PERFORMER "Heaven 17"    REM COMPOSER "Heaven 17"    FLAGS DCP    INDEX 01 33:02:69  TRACK 10 AUDIO    TITLE "Responsibility"    PERFORMER "Heaven 17"    REM COMPOSER "Heaven 17"    FLAGS DCP    INDEX 01 37:49:14  TRACK 11 AUDIO    TITLE "The Last Seven Days"    PERFORMER "Heaven 17"    REM COMPOSER "Heaven 17"    FLAGS DCP    INDEX 01 42:34:51  TRACK 12 AUDIO    TITLE "The Foolish Thing To Do"    PERFORMER "Heaven 17"    REM COMPOSER "Heaven 17"    FLAGS DCP    INDEX 01 46:43:46  TRACK 13 AUDIO    TITLE "The Ballad Of Go Go Brown  (A-Side / Version) / Bonus Track"    PERFORMER "Heaven 17"    REM COMPOSER "Heaven 17"    FLAGS DCP    INDEX 00 50:19:72    INDEX 01 50:21:29  TRACK 14 AUDIO    TITLE "Train Of Love In Motion (A-Side / 7'' Version) / Bonus Track"    PERFORMER "Heaven 17"    REM COMPOSER "Heaven 17"    FLAGS DCP    INDEX 00 54:49:04    INDEX 01 54:50:29  TRACK 15 AUDIO    TITLE "Slow All Over (B-Side) / Bonus Track"    PERFORMER "Heaven 17"    REM COMPOSER "Heaven 17"    FLAGS DCP    INDEX 00 58:17:16    INDEX 01 58:18:33  TRACK 16 AUDIO    TITLE "Work (B-Side) / Bonus Track"    PERFORMER "Heaven 17"    REM COMPOSER "Heaven 17"    FLAGS DCP    INDEX 00 64:56:40    INDEX 01 64:57:43  TRACK 17 AUDIO    TITLE "Giving Up (B-Side) / Bonus Track"    PERFORMER "Heaven 17"    REM COMPOSER "Heaven 17"    FLAGS DCP    INDEX 00 68:34:41    INDEX 01 68:35:08

Лог проверки качества

-----------------------DON'T MODIFY THIS FILE-----------------------PERFORMER: auCDtect Task Manager, ver. 1.6.0 RC1 build 1.6.0.1Copyright (c) 2008-2010 y-soft. All rights reservedhttp://y-soft.orgANALYZER: auCDtect: CD records authenticity detector, version 0.8.2Copyright (c) 2004 Oleg Berngardt. All rights reserved.Copyright (c) 2004 Alexander Djourik. All rights reserved.FILE: Heaven 17 - Teddy Bear, Duke & Psycho.wav  Size: 757932044 Hash: 0E4C1308A89F3B0E10F4D7141E1BE9E4 Accuracy: -m8  Conclusion: CDDA 100%  Signature: 6A00B3F5E8549802BB8E6F9F4AA5886BE443FDA4FILE: Heaven 17 - Teddy Bear, Duke & Psycho.flac  Size: 494260521 Hash: 0E4C1308A89F3B0E10F4D7141E1BE9E4 Accuracy: -m8  Conclusion: CDDA 100%  Signature: 9972B375986F1943260B491DF61DA84F9499D92B

2019 - Demonstration Disc: The Lost Demos 1980 (01:04:28)

01. Penthouse And Pavement (Original Demo)
02. (We Don't Need This) Fascist Groove Thang (Original Demo)
03. Play To Win (Original Demo Instrumental)
04. Soul Warfare (Original Demo)
05. Are Everything (Original Demo)
06. BEF Ident (Alternate Version)
07. Decline Of The West (Alternate Version)
08. Rise Of The East (Alternate Version)
09. Music To Kill Your Parents By (Alternate Version)
10. Uptown Apocalypse (Alternate Version)
11. A Baby Called Billy (Alternate Version)
12. Rhythmic Experiment 1
13. Rhythmic Experiment 2
14. Boys Of Buddha (Experiment)
15. At The Height Of The Fighting (Original Rhythm Track)
16. Rhythmic Loop Experiment
17. Funky Experiment
18. Song Experiment
19. Heavy Drum Experiment
20. Play To Win (Original Demo With Vocals)
Bonus Tracks:
21. Groove Thang
22. Temptation (Original Demo)

Лог создания рипа

Exact Audio Copy V1.3 from 2. September 2016EAC extraction logfile from 5. May 2019, 18:13Heaven 17 / The Lost Demos 1980Used drive  : Optiarc DVD RW AD-7280S   Adapter: 1  ID: 0Read mode               : SecureUtilize accurate stream : YesDefeat audio cache      : YesMake use of C2 pointers : NoRead offset correction                      : 48Overread into Lead-In and Lead-Out          : NoFill up missing offset samples with silence : YesDelete leading and trailing silent blocks   : NoNull samples used in CRC calculations       : YesUsed interface                              : Native Win32 interface for Win NT & 2000Used output format : Internal WAV RoutinesSample format      : 44.100 Hz; 16 Bit; StereoTOC of the extracted CD     Track |   Start  |  Length  | Start sector | End sector    ---------------------------------------------------------        1  |  0:00.00 |  5:31.22 |         0    |    24846        2  |  5:31.22 |  4:37.18 |     24847    |    45639        3  | 10:08.40 |  3:27.44 |     45640    |    61208        4  | 13:36.09 |  3:56.17 |     61209    |    78925        5  | 17:32.26 |  3:07.29 |     78926    |    92979        6  | 20:39.55 |  0:29.13 |     92980    |    95167        7  | 21:08.68 |  7:19.08 |     95168    |   128100        8  | 28:28.01 |  5:01.70 |    128101    |   150745        9  | 33:29.71 |  1:21.47 |    150746    |   156867       10  | 34:51.43 |  3:02.12 |    156868    |   170529       11  | 37:53.55 |  2:49.56 |    170530    |   183260       12  | 40:43.36 |  1:59.47 |    183261    |   192232       13  | 42:43.08 |  0:52.17 |    192233    |   196149       14  | 43:35.25 |  0:24.62 |    196150    |   198011       15  | 44:00.12 |  0:44.36 |    198012    |   201347       16  | 44:44.48 |  3:48.52 |    201348    |   218499       17  | 48:33.25 |  0:45.00 |    218500    |   221874       18  | 49:18.25 |  3:00.38 |    221875    |   235412       19  | 52:18.63 |  0:28.74 |    235413    |   237586       20  | 52:47.62 |  3:30.16 |    237587    |   253352       21  | 56:18.03 |  4:07.37 |    253353    |   271914       22  | 60:25.40 |  4:02.53 |    271915    |   290117Range status and errorsSelected range     Filename C:\Users\Alex\Desktop\Lossless Galaxy ALLexxess\Heaven 17\2019 Play To Win (10CD Book Set Edsel Records)\2019 The Lost Demos 1980\Heaven 17 - The Lost Demos 1980.wav     Peak level 94.3 %     Extraction speed 4.1 X     Range quality 100.0 %     Test CRC F7CCE957     Copy CRC F7CCE957     Copy OKNo errors occurredAccurateRip summaryTrack  1  not present in databaseTrack  2  not present in databaseTrack  3  not present in databaseTrack  4  not present in databaseTrack  5  not present in databaseTrack  6  not present in databaseTrack  7  not present in databaseTrack  8  not present in databaseTrack  9  not present in databaseTrack 10  not present in databaseTrack 11  not present in databaseTrack 12  not present in databaseTrack 13  not present in databaseTrack 14  not present in databaseTrack 15  not present in databaseTrack 16  not present in databaseTrack 17  not present in databaseTrack 18  not present in databaseTrack 19  not present in databaseTrack 20  not present in databaseTrack 21  not present in databaseTrack 22  not present in databaseNone of the tracks are present in the AccurateRip databaseEnd of status report---- CUETools DB Plugin V2.1.6[CTDB TOCID: 8aa9YIFU40R0OaKkUsMeJlfNjzg-] foundSubmit result: 8aa9YIFU40R0OaKkUsMeJlfNjzg- has been confirmedTrack | CTDB Status  1   | (13/13) Accurately ripped  2   | (13/13) Accurately ripped  3   | (13/13) Accurately ripped  4   | (13/13) Accurately ripped  5   | (13/13) Accurately ripped  6   | (13/13) Accurately ripped  7   | (13/13) Accurately ripped  8   | (13/13) Accurately ripped  9   | (13/13) Accurately ripped 10   | (13/13) Accurately ripped 11   | (13/13) Accurately ripped 12   | (12/13) Accurately ripped 13   | (13/13) Accurately ripped 14   | (13/13) Accurately ripped 15   | (13/13) Accurately ripped 16   | (13/13) Accurately ripped 17   | (12/13) Accurately ripped 18   | (13/13) Accurately ripped 19   | (12/13) Accurately ripped 20   | (13/13) Accurately ripped 21   | (12/13) Accurately ripped 22   | (13/13) Accurately ripped==== Log checksum 3CE27E6DD091499ED5E2AF23BD3CF8633915F916EE06B5F64EF46164911ACB1E ====

Содержание индексной карты (.CUE)

REM GENRE "Electronic / Pop / Synth-Pop"REM DATE 2019REM DISCID 1D0F1C16REM COMMENT "ExactAudioCopy v1.3"PERFORMER "Heaven 17"TITLE "The Lost Demos 1980"REM COMPOSER "Heaven 17"FILE "Heaven 17 - The Lost Demos 1980.flac" WAVE  TRACK 01 AUDIO    TITLE "Penthouse And Pavement (Original Demo)"    PERFORMER "Heaven 17"    REM COMPOSER "Heaven 17"    FLAGS DCP    INDEX 01 00:00:00  TRACK 02 AUDIO    TITLE "(We Don't Need This) Facist Groove Thang (Original Demo)"    PERFORMER "Heaven 17"    REM COMPOSER "Heaven 17"    FLAGS DCP    INDEX 00 05:30:53    INDEX 01 05:31:22  TRACK 03 AUDIO    TITLE "Play To Win (Original Demo Instrumental)"    PERFORMER "Heaven 17"    REM COMPOSER "Heaven 17"    FLAGS DCP    INDEX 01 10:08:40  TRACK 04 AUDIO    TITLE "Soul Warfare (Original Demo)"    PERFORMER "Heaven 17"    REM COMPOSER "Heaven 17"    FLAGS DCP    INDEX 01 13:36:09  TRACK 05 AUDIO    TITLE "Are Everything (Original Demo)"    PERFORMER "Heaven 17"    REM COMPOSER "Heaven 17"    FLAGS DCP    INDEX 00 17:32:09    INDEX 01 17:32:26  TRACK 06 AUDIO    TITLE "BEF Ident (Alternate Version)"    PERFORMER "Heaven 17"    REM COMPOSER "Heaven 17"    FLAGS DCP    INDEX 00 20:39:23    INDEX 01 20:39:55  TRACK 07 AUDIO    TITLE "Decline Of The West (Alternate Version)"    PERFORMER "Heaven 17"    REM COMPOSER "Heaven 17"    FLAGS DCP    INDEX 01 21:08:68  TRACK 08 AUDIO    TITLE "Rise Of The East (Alternate Version)"    PERFORMER "Heaven 17"    REM COMPOSER "Heaven 17"    FLAGS DCP    INDEX 00 28:26:68    INDEX 01 28:28:01  TRACK 09 AUDIO    TITLE "Music To Kill Your Parents By (Alternate Version)"    PERFORMER "Heaven 17"    REM COMPOSER "Heaven 17"    FLAGS DCP    INDEX 00 33:29:32    INDEX 01 33:29:71  TRACK 10 AUDIO    TITLE "Uptown Apocalypse (Alternate Version)"    PERFORMER "Heaven 17"    REM COMPOSER "Heaven 17"    FLAGS DCP    INDEX 01 34:51:43  TRACK 11 AUDIO    TITLE "A Baby Called Billy  (Alternate Version)"    PERFORMER "Heaven 17"    REM COMPOSER "Heaven 17"    FLAGS DCP    INDEX 01 37:53:55  TRACK 12 AUDIO    TITLE "Rhythmic Experiment 1"    PERFORMER "Heaven 17"    REM COMPOSER "Heaven 17"    FLAGS DCP    INDEX 00 40:42:63    INDEX 01 40:43:36  TRACK 13 AUDIO    TITLE "Rhythmic Experiment 2"    PERFORMER "Heaven 17"    REM COMPOSER "Heaven 17"    FLAGS DCP    INDEX 01 42:43:08  TRACK 14 AUDIO    TITLE "Boys Of Buddah Experiment"    PERFORMER "Heaven 17"    REM COMPOSER "Heaven 17"    FLAGS DCP    INDEX 00 43:34:65    INDEX 01 43:35:25  TRACK 15 AUDIO    TITLE "At The Height Of The Fighting (Original Rhythm Track)"    PERFORMER "Heaven 17"    REM COMPOSER "Heaven 17"    FLAGS DCP    INDEX 00 43:59:28    INDEX 01 44:00:12  TRACK 16 AUDIO    TITLE "Rhythmic Loop Experiment"    PERFORMER "Heaven 17"    REM COMPOSER "Heaven 17"    FLAGS DCP    INDEX 00 44:44:15    INDEX 01 44:44:48  TRACK 17 AUDIO    TITLE "Funky Experiment"    PERFORMER "Heaven 17"    REM COMPOSER "Heaven 17"    FLAGS DCP    INDEX 00 48:32:71    INDEX 01 48:33:25  TRACK 18 AUDIO    TITLE "Song Experiment"    PERFORMER "Heaven 17"    REM COMPOSER "Heaven 17"    FLAGS DCP    INDEX 00 49:18:07    INDEX 01 49:18:25  TRACK 19 AUDIO    TITLE "Heavy Drum Experiment"    PERFORMER "Heaven 17"    REM COMPOSER "Heaven 17"    FLAGS DCP    INDEX 00 52:18:15    INDEX 01 52:18:63  TRACK 20 AUDIO    TITLE "Play To Win (Original Demo With Vocals)"    PERFORMER "Heaven 17"    REM COMPOSER "Heaven 17"    FLAGS DCP    INDEX 00 52:47:46    INDEX 01 52:47:62  TRACK 21 AUDIO    TITLE "Groove Thang / Bonus Track"    PERFORMER "Heaven 17"    REM COMPOSER "Heaven 17"    FLAGS DCP    INDEX 00 56:17:37    INDEX 01 56:18:03  TRACK 22 AUDIO    TITLE "Temptation (Original Demo) / Bonus Track"    PERFORMER "Heaven 17"    REM COMPOSER "Heaven 17"    FLAGS DCP    INDEX 00 60:24:73    INDEX 01 60:25:40

Лог проверки качества

-----------------------DON'T MODIFY THIS FILE-----------------------PERFORMER: auCDtect Task Manager, ver. 1.6.0 RC1 build 1.6.0.1Copyright (c) 2008-2010 y-soft. All rights reservedhttp://y-soft.orgANALYZER: auCDtect: CD records authenticity detector, version 0.8.2Copyright (c) 2004 Oleg Berngardt. All rights reserved.Copyright (c) 2004 Alexander Djourik. All rights reserved.FILE: Heaven 17 - The Lost Demos 1980.wav  Size: 682357580 Hash: 66D4FCCBA71DFBE3429427C738E3D31D Accuracy: -m8  Conclusion: CDDA 100%  Signature: 96026AA7EB224ED5D4F6CB2802162F1C3BC29DEDFILE: Heaven 17 - The Lost Demos 1980.flac  Size: 410404007 Hash: 66D4FCCBA71DFBE3429427C738E3D31D Accuracy: -m8  Conclusion: CDDA 100%  Signature: 7F40BDCFC642D133533747E102C913F9420E301C

2019 - Special Fortified Dance Mixes: To Enhance Danceability #1 / #2 / #3 / #4 (04:45:43)

To Enhance Danceability #1 (01:10:30)

01. (We Don't Need This) Fascist Groove Thang (12'' Version)
02. I'm Your Money (12'' Version)
03. Play To Win (12'' Version)
04. Penthouse And Pavement (12'' Version)
05. Let Me Go (Endless Version)
06. Temptation (12'' Version)
07. Who'll Stop The Rain (12'' Version)
08. Come Live With Me (12'' Version)
09. Crushed By The Wheels Of Industry (Parts I & II / Uninterrupted Single Version)
10. Sunset Now (Extended Version)
11. This Is Mine (Extended Version)
12. ...(And That's No Lie) (Remixed To Enhance Its Danceability)

Лог создания рипа

Exact Audio Copy V1.3 from 2. September 2016EAC extraction logfile from 5. May 2019, 16:39Heaven 17 / To Enhance Danceability 1Used drive  : PLEXTOR BD-R  PX-B950SA   Adapter: 1  ID: 1Read mode               : SecureUtilize accurate stream : YesDefeat audio cache      : YesMake use of C2 pointers : NoRead offset correction                      : 6Overread into Lead-In and Lead-Out          : NoFill up missing offset samples with silence : YesDelete leading and trailing silent blocks   : NoNull samples used in CRC calculations       : YesUsed interface                              : Native Win32 interface for Win NT & 2000Used output format : Internal WAV RoutinesSample format      : 44.100 Hz; 16 Bit; StereoTOC of the extracted CD     Track |   Start  |  Length  | Start sector | End sector    ---------------------------------------------------------        1  |  0:00.00 |  4:53.55 |         0    |    22029        2  |  4:53.55 |  5:07.64 |     22030    |    45118        3  | 10:01.44 |  7:24.01 |     45119    |    78419        4  | 17:25.45 |  6:49.06 |     78420    |   109100        5  | 24:14.51 |  6:47.28 |    109101    |   139653        6  | 31:02.04 |  4:39.67 |    139654    |   160645        7  | 35:41.71 |  6:07.05 |    160646    |   188175        8  | 41:49.01 |  4:33.73 |    188176    |   208723        9  | 46:22.74 |  6:57.67 |    208724    |   240065       10  | 53:20.66 |  5:17.13 |    240066    |   263853       11  | 58:38.04 |  5:40.07 |    263854    |   289360       12  | 64:18.11 |  6:11.44 |    289361    |   317229Range status and errorsSelected range     Filename C:\Users\Alex\Desktop\Lossless Galaxy ALLexxess\Heaven 17\2019 Play To Win (10CD Book Set Edsel Records)\2019 To Enhance Danceability 4CD\CD1\Heaven 17 - To Enhance Danceability 1.wav     Peak level 94.3 %     Extraction speed 7.7 X     Range quality 99.9 %     Test CRC 27884F22     Copy CRC 27884F22     Copy OKNo errors occurredAccurateRip summaryTrack  1  not present in databaseTrack  2  not present in databaseTrack  3  not present in databaseTrack  4  not present in databaseTrack  5  not present in databaseTrack  6  not present in databaseTrack  7  not present in databaseTrack  8  not present in databaseTrack  9  not present in databaseTrack 10  not present in databaseTrack 11  not present in databaseTrack 12  not present in databaseNone of the tracks are present in the AccurateRip databaseEnd of status report---- CUETools DB Plugin V2.1.6[CTDB TOCID: aqdhr2aydqVwaWW3zJCBAwBzqkk-] foundSubmit result: aqdhr2aydqVwaWW3zJCBAwBzqkk- has been confirmedTrack | CTDB Status  1   | (12/12) Accurately ripped  2   | (12/12) Accurately ripped  3   | (12/12) Accurately ripped  4   | (12/12) Accurately ripped  5   | (12/12) Accurately ripped  6   | (12/12) Accurately ripped  7   | (12/12) Accurately ripped  8   | (12/12) Accurately ripped  9   | (12/12) Accurately ripped 10   | (12/12) Accurately ripped 11   | (12/12) Accurately ripped 12   | (12/12) Accurately ripped==== Log checksum B511B7AA61148CD5BF0D37C86B6111C46DFFDB149695654D052902CF84708D24 ====

Содержание индексной карты (.CUE)

REM GENRE "Electronic / Pop / Synth-Pop"REM DATE 2019REM DISCID 9410850CREM COMMENT "ExactAudioCopy v1.3"PERFORMER "Heaven 17"TITLE "To Enhance Danceability 1"REM COMPOSER "Heaven 17"FILE "Heaven 17 - To Enhance Danceability 1.flac" WAVE  TRACK 01 AUDIO    TITLE "(We Don't Need This) Facist Groove Thang (12'' Version)"    PERFORMER "Heaven 17"    REM COMPOSER "Heaven 17"    FLAGS DCP    INDEX 01 00:00:00  TRACK 02 AUDIO    TITLE "I'm Your Money (12'' Version)"    PERFORMER "Heaven 17"    REM COMPOSER "Heaven 17"    FLAGS DCP    INDEX 01 04:53:55  TRACK 03 AUDIO    TITLE "Play To Win (12'' Version)"    PERFORMER "Heaven 17"    REM COMPOSER "Heaven 17"    FLAGS DCP    INDEX 01 10:01:44  TRACK 04 AUDIO    TITLE "Penthouse And Pavement (12'' Version)"    PERFORMER "Heaven 17"    REM COMPOSER "Heaven 17"    FLAGS DCP    INDEX 01 17:25:45  TRACK 05 AUDIO    TITLE "Let Me Go (12'' Version)"    PERFORMER "Heaven 17"    REM COMPOSER "Heaven 17"    FLAGS DCP    INDEX 01 24:14:51  TRACK 06 AUDIO    TITLE "Temptation (12'' Version)"    PERFORMER "Heaven 17"    REM COMPOSER "Heaven 17"    FLAGS DCP    INDEX 01 31:02:04  TRACK 07 AUDIO    TITLE "Who'll Stop The Rain (12'' Version)"    PERFORMER "Heaven 17"    REM COMPOSER "Heaven 17"    FLAGS DCP    INDEX 01 35:41:71  TRACK 08 AUDIO    TITLE "Come Live With Me (12'' Version)"    PERFORMER "Heaven 17"    REM COMPOSER "Heaven 17"    FLAGS DCP    INDEX 01 41:49:01  TRACK 09 AUDIO    TITLE "Crushed By The Wheels Of Industry (Parts I & II / Uninterrupted Single Version)"    PERFORMER "Heaven 17"    REM COMPOSER "Heaven 17"    FLAGS DCP    INDEX 01 46:22:74  TRACK 10 AUDIO    TITLE "Sunset Now (Extended Version)"    PERFORMER "Heaven 17"    REM COMPOSER "Heaven 17"    FLAGS DCP    INDEX 01 53:20:66  TRACK 11 AUDIO    TITLE "This Is Mine (Extended Version)"    PERFORMER "Heaven 17"    REM COMPOSER "Heaven 17"    FLAGS DCP    INDEX 01 58:38:04  TRACK 12 AUDIO    TITLE "...(And That's No Lie) (Remix To Enhance Its Danceability)"    PERFORMER "Heaven 17"    REM COMPOSER "Heaven 17"    FLAGS DCP    INDEX 01 64:18:11

Лог проверки качества

-----------------------DON'T MODIFY THIS FILE-----------------------PERFORMER: auCDtect Task Manager, ver. 1.6.0 RC1 build 1.6.0.1Copyright (c) 2008-2010 y-soft. All rights reservedhttp://y-soft.orgANALYZER: auCDtect: CD records authenticity detector, version 0.8.2Copyright (c) 2004 Oleg Berngardt. All rights reserved.Copyright (c) 2004 Alexander Djourik. All rights reserved.FILE: Heaven 17 - To Enhance Danceability 1.wav  Size: 746125004 Hash: 658854BD4FC3CACE9E6A8042503ACE2A Accuracy: -m8  Conclusion: CDDA 99%  Signature: 99A9DE82DC5CA1DF0071DD5F950EF7FB57B519ADFILE: Heaven 17 - To Enhance Danceability 1.flac  Size: 506385902 Hash: 658854BD4FC3CACE9E6A8042503ACE2A Accuracy: -m8  Conclusion: CDDA 99%  Signature: 4C067DA5D483B1343BC3B55C333646ACE4A9DA33

To Enhance Danceability #2 (01:14:03)

01. Penthouse And Pavement (Remix)
02. Let Me Go (Endless Version)
03. Play To Win (Endless Version)
04. Contenders (Dance Version)
05. Contenders (Go Go Version)
06. (Big) Trouble
07. The Ballad Of Go-Go Brown (Extended Version)
08. Train Of Love In Motion (The Mainline Mix)
09. Temptation (Brothers In Rhythm Remix)
10. (We Don't Need This) Fascist Groove Thang (Rapino Club Mix)
11. Penthouse And Pavement (Tommy D's Master Remix)
12. Let Me Go ('Hon, Its Flawless' Mix)

Лог создания рипа

[pre]Exact Audio Copy V1.3 from 2. September 2016EAC extraction logfile from 5. May 2019, 9:53Heaven 17 / To Enhance Danceability 2Used drive : PLEXTOR BD-R PX-B950SA Adapter: 1 ID: 1Read mode : SecureUtilize accurate stream : YesDefeat audio cache : YesMake use of C2 pointers : NoRead offset correction : 6Overread into Lead-In and Lead-Out : NoFill up missing offset samples with silence : YesDelete leading and trailing silent blocks : NoNull samples used in CRC calculations : YesUsed interface : Native Win32 interface for Win NT & 2000Used output format : Internal WAV RoutinesSample format : 44.100 Hz; 16 Bit; StereoTOC of the extracted CD Track | Start | Length | Start sector | End sector --------------------------------------------------------- 1 | 0:00.00 | 6:23.41 | 0 | 28765 2 | 6:23.41 | 6:47.38 | 28766 | 59328 3 | 13:11.04 | 5:02.29 | 59329 | 82007 4 | 18:13.33 | 6:24.21 | 82008 | 110828 5 | 24:37.54 | 6:37.65 | 110829 | 140668 6 | 31:15.44 | 5:49.27 | 140669 | 166870 7 | 37:04.71 | 4:37.09 | 166871 | 187654 8 | 41:42.05 | 5:54.51 | 187655 | 214255 9 | 47:36.56 | 6:54.01 | 214256 | 245306 10 | 54:30.57 | 5:55.03 | 245307 | 271934 11 | 60:25.60 | 7:04.29 | 271935 | 303763 12 | 67:30.14 | 6:32.50 | 303764 | 333213Range status and errorsSelected range Filename C:\Users\Alex\Desktop\Lossless Galaxy ALLexxess\Heaven 17\2019 Play To Win (10CD Book Set Edsel Records)\2019 To Enhance Danceability 4CD\CD2\Heaven 17 - To Enhance Danceability 2.wav Peak level 99.9 % Extraction speed 6.7 X Range quality 100.0 % Test CRC EF33D272 Copy CRC EF33D272 Copy OKNo errors occurredAccurateRip summaryTrack 1 not present in databaseTrack 2 not present in databaseTrack 3 not present in databaseTrack 4 not present in databaseTrack 5 not present in databaseTrack 6 not present in databaseTrack 7 not present in databaseTrack 8 not present in databaseTrack 9 not present in databaseTrack 10 not present in databaseTrack 11 not present in databaseTrack 12 not present in databaseNone of the tracks are present in the AccurateRip databaseEnd of status report---- CUETools DB Plugin V2.1.6[CTDB TOCID: Osrvdhvki63llp23WiCTt4xBAx0-] foundSubmit result: Osrvdhvki63llp23WiCTt4xBAx0- has been confirmedTrack | CTDB Status 1 | (12/12) Accurately ripped 2 | (12/12) Accurately ripped 3 | (12/12) Accurately ripped 4 | (12/12) Accurately ripped 5 | (12/12) Accurately ripped 6 | (12/12) Accurately ripped 7 | (12/12) Accurately ripped 8 | (11/12) Accurately ripped 9 | (11/12) Accurately ripped 10 | (12/12) Accurately ripped 11 | (11/12) Accurately ripped 12 | (12/12) Accurately ripped==== L

To download the content you need:
1. Download and install torrent client [for Windows] or for mobile system
2. Click on [Download]
Attention.
If the test YOU are NOT a ROBOT - does not work, then You are using an outdated browser.
Install the current browser and click on [Download]
Security: torrent client is allowed by Kaspersky.

[asmlocator.ru].t641214.torrent 
Torrent: Registered [ 2019-06-02 15:35 ] · 2FB3A0D559AFC146C700296A8E92F13FA844250B

Download .torrent

Download

31 KB

Status: checked
Completed: 0 times
Size: 4.99 GB
terms.php
[Profile] [PM]
Display posts:    
Reply to topic

Current time is: 16-Jun 09:42

All times are UTC ± 0



You cannot post new topics in this forum
You cannot reply to topics in this forum
You cannot edit your posts in this forum
You cannot delete your posts in this forum
You cannot vote in polls in this forum
You cannot attach files in this forum
You can download files in this forum