Наруто: Ураганные хроники - Затерянная башня (фильм седьмой) / Gekijouban Naruto Shippuude [Movie] [Без хардсаба] [RUS(int), JAP, SUB] [2010, приключения, комедия, боевые искусства, сёнэн, драма, BDRip] [1080p]

Reply to topic
DL-List and Torrent activity
Size:  4.65 GB   |    Registered:  2 months 26 days   |    Completed:  0 times

Seeder not seen: Never

 
   
 
 
Author Message

star21 ®

Gender: Female

Longevity: 3 years 9 months

Posts: 551989

Location: Екатеринбург

Post 28-May-2019 18:25

[Quote]

Наруто: Ураганные хроники - Затерянная башня (фильм седьмой) / Gekijouban Naruto Shippuude Страна: Япония
Год выпуска: 2010
Жанр: приключения, комедия, боевые искусства, сёнэн, драма
Продолжительность: 85 минутПеревод:
русские субтитры от фансаб-Альянса Firegorn TeamОзвучка:
русский дубляж от ReanimediaРежиссёр: Мурата Масахико
Автор оригинала:Масаси КисимотоСтудия: Описание: Седьмой полнометражный фильм о Наруто или четвертый фильм Naruto Shippuuden. На нашего всеми любимого Наруто возложена миссия захватить Мукаде (кто не помнит кто такой Мукаде напомню. Мукаде был одним из шпионов Сасори) пропавшего без вести. Наруто Узумаки отправляется к руинам долины "Оурен" и находит там Мукаде. Цель Мукаде - найти источник некой силы, что дремлет в этих руинах. Мукаде пытается воспользоваться этой силой и по не осторожности мощный луч света охватывает Наруто и отправляет его в прошлое, на 20 лет назад. Когда Наруто просыпается, он встречает четвертого Хокаге Минато Намиказе!Качество: BDRip 1080p
Тип релиза: Без хардсаба
Формат видео: MKV
Релиз/Автор рипа: [SOFCJ-Raws]
Видео: MPEG4 Video (H264) 8 bit 1920x1040 23.976fps 6207 kbps
Аудио RUS: AC3 480000HZ 2ch 16bit 192 kbps Язык Русский (в составе контейнера) ; Озвучка: Reanimedia
Аудио JAP: FLAC 48000Hz 6ch 16bit 1408 kbps Язык Японский ; Озвучка 2: Оригиналрусские субтитры от фансаб-Альянса Firegorn Team
  • Перевод, оформление: Redgar-firegorn
  • Редактор: Baaka

Подробные тех. данные

GeneralUnique ID                   : 164203397414189001736256256745493989419 (0x7B886C8B97A519593B5C13D06997882B)Complete name               : D:\Загрузки\Наруто (1).mkvFormat                      : MatroskaFormat version              : Version 4File size                   : 4.65 GiBDuration                    : 1 h 25 minOverall bit rate mode       : VariableOverall bit rate            : 7 757 kb/sMovie name                  : [SOFCJ-Raws] Naruto Shippuuden Movie 4 - The Lost Tower (BD 1920x1040 x264 FLAC)Encoded date                : UTC 2019-05-22 15:27:05Writing application         : mkvmerge v33.1.0 ('Primrose') 64-bitWriting library             : libebml v1.3.7 + libmatroska v1.5.0Cover                       : YesAttachments                 : cover.jpgVideoID                          : 1Format                      : AVCFormat/Info                 : Advanced Video CodecFormat profile              : High@L5Format settings             : CABAC / 6 Ref FramesFormat settings, CABAC      : YesFormat settings, Reference  : 6 framesCodec ID                    : V_MPEG4/ISO/AVCDuration                    : 1 h 25 minBit rate                    : 6 233 kb/sWidth                       : 1 920 pixelsHeight                      : 1 040 pixelsDisplay aspect ratio        : 1.85:1Frame rate mode             : ConstantFrame rate                  : 23.976 (24000/1001) FPSColor space                 : YUVChroma subsampling          : 4:2:0Bit depth                   : 8 bitsScan type                   : ProgressiveBits/(Pixel*Frame)          : 0.130Stream size                 : 3.69 GiB (79%)Writing library             : x264 core 133 r2334+704+50 a7549b7 tMod [8-bit@all X86]Encoding settings           : cabac=1 / ref=6 / deblock=1:0:0 / analyse=0x3:0x133 / me=umh / subme=7 / psy=1 / fade_compensate=0.00 / psy_rd=0.40:0.00 / mixed_ref=1 / me_range=16 / chroma_me=1 / trellis=2 / 8x8dct=1 / cqm=0 / deadzone=21,11 / fast_pskip=0 / chroma_qp_offset=-2 / threads=3 / lookahead_threads=1 / sliced_threads=0 / nr=0 / decimate=1 / interlaced=0 / bluray_compat=0 / constrained_intra=0 / fgo=0 / bframes=14 / b_pyramid=2 / b_adapt=1 / b_bias=0 / direct=1 / weightb=0 / open_gop=0 / weightp=2 / keyint=250 / keyint_min=23 / scenecut=40 / intra_refresh=0 / rc_lookahead=50 / rc=abr / mbtree=1 / bitrate=6233 / ratetol=1.0 / qcomp=0.70 / qpmin=0 / qpmax=69 / qpstep=4 / ip_ratio=1.40 / aq=1:0.60 / aq-sensitivity=10.00 / aq-factor=1.00:1.00:1.00 / aq2=0 / aq3=0Language                    : JapaneseDefault                     : YesForced                      : NoColor range                 : LimitedColor primaries             : BT.709Transfer characteristics    : BT.709Matrix coefficients         : BT.709Audio #1ID                          : 2Format                      : AC-3Format/Info                 : Audio Coding 3Commercial name             : Dolby DigitalCodec ID                    : A_AC3Duration                    : 1 h 25 minBit rate mode               : ConstantBit rate                    : 192 kb/sChannel(s)                  : 2 channelsChannel layout              : L RSampling rate               : 48.0 kHzFrame rate                  : 31.250 FPS (1536 SPF)Bit depth                   : 16 bitsCompression mode            : LossyStream size                 : 117 MiB (2%)Title                       : ReanimediaLanguage                    : RussianService kind                : Complete MainDefault                     : YesForced                      : NoAudio #2ID                          : 3Format                      : FLACFormat/Info                 : Free Lossless Audio CodecCodec ID                    : A_FLACDuration                    : 1 h 25 minBit rate mode               : VariableBit rate                    : 1 408 kb/sChannel(s)                  : 6 channelsChannel layout              : L R C LFE Ls RsSampling rate               : 48.0 kHzFrame rate                  : 10.417 FPS (4608 SPF)Bit depth                   : 16 bitsCompression mode            : LosslessStream size                 : 858 MiB (18%)Writing library             : Lavf53.19.0Language                    : JapaneseDefault                     : NoForced                      : NoTextID                          : 4Format                      : ASSCodec ID                    : S_TEXT/ASSCodec ID/Info               : Advanced Sub Station AlphaDuration                    : 1 h 25 minBit rate                    : 90 b/sCount of elements           : 864Compression mode            : LosslessStream size                 : 56.3 KiB (0%)Title                       : Firegorn TeamLanguage                    : RussianDefault                     : NoForced                      : No

Скриншоты


To download the content you need:
1. Download and install torrent client [for Windows] or for mobile system
2. Click on [Download]
Attention.
If the test YOU are NOT a ROBOT - does not work, then You are using an outdated browser.
Install the current browser and click on [Download]
Security: torrent client is allowed by Kaspersky.

[asmlocator.ru].t639608.torrent 
Torrent: Registered [ 2019-05-28 18:25 ] · F73A5054AFDBE81DCEC0A3B235BA6033816B3BED

Download .torrent

Download

12 KB

Status: checked
Completed: 0 times
Size: 4.65 GB
terms.php
[Profile] [PM]
Display posts:    
Reply to topic

Current time is: 23-Aug 19:16

All times are UTC ± 0



You cannot post new topics in this forum
You cannot reply to topics in this forum
You cannot edit your posts in this forum
You cannot delete your posts in this forum
You cannot vote in polls in this forum
You cannot attach files in this forum
You can download files in this forum