Постельные компаньоны / Bed Companion / Hua xin ye mei gui (Чеунг Нган-Тинг / Cheung Ngan-Ting) [1988, Гонконг, боевик, эротика, DVDRip] VO (Хоррор Мейкер)

Reply to topic
DL-List and Torrent activity
Size:  1.37 GB   |    Registered:  19 days   |    Completed:  1 time

Seeder not seen: 37 minutes

 
   
 
 
Author Message

star21 ®

Gender: Female

Longevity: 3 years 7 months

Posts: 552147

Location: Екатеринбург

Post 28-May-2019 16:20

[Quote]

Постельные компаньоны / Bed Companion / Hua xin ye mei gui Страна: Гонконг
Жанр: боевик, эротика
Год выпуска: 1988
Продолжительность: 01:28:49Перевод: Одноголосый закадровый Хоррор Мейкер
Субтитры: Английские / Китайские (вшитые)
Режиссер: Чеунг Нган-Тинг / Cheung Ngan-TingВ ролях: Джоджо Нган, Ким Ги Мей, Чарли Чо, Пун Цзян-Вэй, Хванг Джанг-Ли, Кэн Ло, Лин Минг, Лье Вэй, Том Пун
Описание: Богатенький бизнесмен мистер Сун, профессионал по части сходить налево. Но, чем больше его коллекция любовных побед, чем чаще остается непогашенным супружеский долг- и его жена Венди заводит себе молодого любовника (Пун Цзян-Вэй), который, в свою очередь, находит романтическое увлечение в лице ровестницы Кими ... И последнюю похитят киднепперы под предводительством Хванга Джанг-Ли ...Сэмпл: http://multi-up.com/1233078Качество видео: DVDRip (Исходник - DVD9)
Формат видео: AVIВидео: XviD 73, 608x352, (1,72:1), 23.976 fps, 1998 Кбит/с, 8 бит
Аудио: Русский (АС3, 2 ch (Front: L R), 48,0 KHz, 192 Kbps)

MediaInfo

ОбщееПолное имя                               : D:\Фильмы на трекер\Постельные компаньоны  (боевик 1988 год).aviФормат                                   : AVIФормат/Информация                        : Audio Video InterleaveРазмер файла                             : 1,37 ГбайтПродолжительность                        : 1 ч. 28 м.Общий поток                              : 2200 Кбит/секПрограмма кодирования                    : VirtualDubMod 1.5.10.2 (build 2540/release)Библиотека кодирования                   : VirtualDubMod build 2540/releaseВидеоИдентификатор                            : 0Формат                                   : MPEG-4 VisualПрофиль формата                          : Advanced Simple@L5Параметр BVOP формата                    : 2Параметр QPel формата                    : НетПараметр GMC формата                     : Без точки переходаПараметр матрицы формата                 : ВыборочнаяИдентификатор кодека                     : XVIDИдентификатор кодека/Подсказка           : XviDПродолжительность                        : 1 ч. 28 м.Битрейт                                  : 1998 Кбит/секШирина                                   : 608 пикселейВысота                                   : 352 пикселяСоотношение сторон                       : 1,727Частота кадров                           : 23,976 (24000/1001) кадра/секЦветовое пространство                    : YUVСубдискретизация насыщенности            : 4:2:0Битовая глубина                          : 8 битТип развёртки                            : ПрогрессивнаяМетод сжатия                             : С потерямиБит/(Пиксели*Кадры)                      : 0.389Размер потока                            : 1,24 Гбайт (91%)Библиотека кодирования                   : XviD 73АудиоИдентификатор                            : 1Формат                                   : AC-3Формат/Информация                        : Audio Coding 3Расширение режима                        : CM (complete main)Параметр Endianness формата              : BigИдентификатор кодека                     : 2000Продолжительность                        : 1 ч. 28 м.Вид битрейта                             : ПостоянныйБитрейт                                  : 192 Кбит/секКаналы                                   : 2 каналаРасположение каналов                     : Front: L RЧастота                                  : 48,0 КГцЧастота кадров                           : 31,250 кадров/сек (1536 spf)Метод сжатия                             : С потерямиРазмер потока                            : 122 Мбайт (9%)Выравнивание                             : Разделение по промежуткамПродолжительность промежутка             : 42  мс. (1,00 видеокадр)Время предзагрузки промежутка            : 500  мс.

Скриншот c названием фильма

Скриншоты


To download the content you need:
1. Download and install torrent client [for Windows] or for mobile system
2. Click on [Download]
Attention.
If the test YOU are NOT a ROBOT - does not work, then You are using an outdated browser.
Install the current browser and click on [Download]
Security: torrent client is allowed by Kaspersky.

[asmlocator.ru].t639575.torrent 
Torrent: Registered [ 2019-05-28 16:20 ] · 5BC2868C83049F3C7CB4BB2B1AD94CF43C4C1C11

Download .torrent

Download

14 KB

Status: checked
Completed: 1 times
Size: 1.37 GB
terms.php
[Profile] [PM]
Display posts:    
Reply to topic

Current time is: 16-Jun 20:12

All times are UTC ± 0



You cannot post new topics in this forum
You cannot reply to topics in this forum
You cannot edit your posts in this forum
You cannot delete your posts in this forum
You cannot vote in polls in this forum
You cannot attach files in this forum
You can download files in this forum