Святой Ральф / Saint Ralph (Майкл МакГоун / Michael McGowan) [2004, Канада, драма, комедия, спорт, WEB-DL 1080p] MVO + AVO (А. Карповский) + Sub Eng + Original Eng

Reply to topic
DL-List and Torrent activity
Size:  6.54 GB   |    Registered:  28 days   |    Completed:  0 times

Seeder not seen: 1 hour 6 minutes

 
   
 
 
Author Message

star21 ®

Gender: Female

Longevity: 3 years 7 months

Posts: 552118

Location: Екатеринбург

Post 28-May-2019 10:00

[Quote]

Святой Ральф / Saint Ralph Страна: Канада
Студия: Alliance Atlantis Communications
Жанр: драма, комедия, спорт
Год выпуска: 2004
Продолжительность: 01:38:24
Перевод: Профессиональный (многоголосый закадровый) Hallmark
Перевод 2: Авторский (одноголосый закадровый) А. Карповский
Субтитры: английские
Оригинальная аудиодорожка: английскийРежиссер: Майкл МакГоун / Michael McGowanВ ролях: Адам Батчер, Кэмпбелл Скотт, Гордон Пинсент, Дженнифер Тилли, Шона МакДональд, Тамара Хоуп, Фрэнк Круделе, Майкл Канев, Крис Площански, Полетт Синклер
Описание: 14-летний Ральф после смерти отца и тяжелой болезни матери оказывается в католическом приюте для мальчиков. Не отличаясь ангельским поведением, Ральф восстанавливает против себя многих учителей, и только отец Хибберт способен разглядеть в нем незаурядные спортивные способности. Ральф — гениальный бегун, и когда врачи сообщают ему, что только чудо может спасти его мать, он решат сотворить это чудо — во что бы то ни стало победить в Бостонском марафоне…Доп. информация: Дорожка Карповского на трекере "дутая" - речь во всех каналах. Cведение звука - DiabloКинопоиск - IMDb
SampleТип релиза: WEB-DL 1080p - SbR
Контейнер: MKVВидео: MPEG4 AVC Video, H264, 1920x1080, 23.976 fps, 8306 Kbps
Аудио 1: Russian (AC3, 2 ch, 192 kbps, 16 bits, 48.0 KHz) - MVO
Аудио 2: Russian (AC3, 2 ch, 192 kbps, 16 bits, 48.0 KHz) - AVO
Аудио 3: English (AC3, 6 ch, 448 kbps, 16 bits, 48.0 KHz) - оригинал
Аудио 4: English (AC3, 2 ch, 192 kbps, 16 bits, 48.0 KHz) - Director's Commentary
Формат субтитров: softsub (SRT)

MediaInfo

General
Unique ID : 196839204840776505469405630373980911319 (0x9415DA1504D4666EA8EE4DFD2B11B6D7)
Complete name : D:\Saint Ralph 2004 WEB-DL 1080p.mkv
Format : Matroska
Format version : Version 4 / Version 2
File size : 6.54 GiB
Duration : 1 h 38 min
Overall bit rate mode : Variable
Overall bit rate : 9 520 kb/s
Encoded date : UTC 2019-05-28 04:03:31
Writing application : mkvmerge v6.1.0 ('Old Devil') built on Mar 2 2013 14:32:37
Writing library : libebml v1.3.0 + libmatroska v1.4.0Video
ID : 1
Format : AVC
Format/Info : Advanced Video Codec
Format profile : High@L4
Format settings : CABAC / 4 Ref Frames
Format settings, CABAC : Yes
Format settings, ReFrames : 4 frames
Codec ID : V_MPEG4/ISO/AVC
Duration : 1 h 38 min
Bit rate mode : Variable
Bit rate : 8 306 kb/s
Maximum bit rate : 15.0 Mb/s
Width : 1 920 pixels
Height : 1 080 pixels
Display aspect ratio : 16:9
Frame rate mode : Constant
Frame rate : 23.976 (24000/1001) FPS
Color space : YUV
Chroma subsampling : 4:2:0
Bit depth : 8 bits
Scan type : Progressive
Bits/(Pixel*Frame) : 0.167
Stream size : 5.71 GiB (87%)
Language : English
Default : Yes
Forced : No
Color range : Limited
Color primaries : BT.709
Transfer characteristics : BT.709
Matrix coefficients : BT.709Audio #1
ID : 2
Format : AC-3
Format/Info : Audio Coding 3
Codec ID : A_AC3
Duration : 1 h 38 min
Bit rate mode : Constant
Bit rate : 192 kb/s
Channel(s) : 2 channels
Channel positions : Front: L R
Sampling rate : 48.0 kHz
Frame rate : 31.250 FPS (1536 SPF)
Bit depth : 16 bits
Compression mode : Lossy
Stream size : 135 MiB (2%)
Title : MVO
Language : Russian
Service kind : Complete Main
Default : Yes
Forced : NoAudio #2
ID : 3
Format : AC-3
Format/Info : Audio Coding 3
Codec ID : A_AC3
Duration : 1 h 38 min
Bit rate mode : Constant
Bit rate : 192 kb/s
Channel(s) : 2 channels
Channel positions : Front: L R
Sampling rate : 48.0 kHz
Frame rate : 31.250 FPS (1536 SPF)
Bit depth : 16 bits
Compression mode : Lossy
Stream size : 135 MiB (2%)
Title : AVO Карповский
Language : Russian
Service kind : Complete Main
Default : No
Forced : NoAudio #3
ID : 4
Format : AC-3
Format/Info : Audio Coding 3
Codec ID : A_AC3
Duration : 1 h 38 min
Bit rate mode : Constant
Bit rate : 448 kb/s
Channel(s) : 6 channels
Channel positions : Front: L C R, Side: L R, LFE
Sampling rate : 48.0 kHz
Frame rate : 31.250 FPS (1536 SPF)
Bit depth : 16 bits
Compression mode : Lossy
Stream size : 315 MiB (5%)
Language : English
Service kind : Complete Main
Default : No
Forced : NoAudio #4
ID : 5
Format : AC-3
Format/Info : Audio Coding 3
Codec ID : A_AC3
Duration : 1 h 38 min
Bit rate mode : Constant
Bit rate : 192 kb/s
Channel(s) : 2 channels
Channel positions : Front: L R
Sampling rate : 48.0 kHz
Frame rate : 31.250 FPS (1536 SPF)
Bit depth : 16 bits
Compression mode : Lossy
Stream size : 135 MiB (2%)
Title : Director's Commentary
Language : English
Service kind : Complete Main
Default : No
Forced : NoText #1
ID : 6
Format : UTF-8
Codec ID : S_TEXT/UTF8
Codec ID/Info : UTF-8 Plain Text
Language : English
Default : No
Forced : NoText #2
ID : 7
Format : UTF-8
Codec ID : S_TEXT/UTF8
Codec ID/Info : UTF-8 Plain Text
Title : SDH
Language : English
Default : No
Forced : NoMenu
00:00:00.000 : en:01. Studio Logo
00:00:44.000 : en:02. Title Sequence
00:01:04.000 : en:03. Ralph Walker confesses
00:05:42.000 : en:04. Ralph learns of Nietzsche
00:09:38.000 : en:05. Conscripted
00:14:29.000 : en:06. Ralph's classmates humiliate him at lunch
00:17:36.000 : en:07. Ralph drums up some money
00:20:50.000 : en:08. Ralph learns he needs a miracle
00:24:09.000 : en:09. Ralph finds his miracle
00:26:31.000 : en:10. Ralph asks Fitz for help
00:31:13.000 : en:11. Ralph gets his friends to help him train
00:34:25.000 : en:12. Ralph follow's Longboat's advice
00:38:10.000 : en:13. Martyrdom and Six thousand calories a day
00:40:53.000 : en:14. Boxing Day race
00:43:29.000 : en:15. Hibbert offers to train Ralph
00:48:33.000 : en:16. Ralph asks Hibbert why he quit running
00:51:40.000 : en:17. Ralph's hard work starts to pay off
00:58:25.000 : en:18. Around the bay
01:03:42.000 : en:19. Ralph loses his patience
01:09:01.000 : en:20. Chester urges Ralph to continue
01:13:59.000 : en:21. Ralph goes to Boston
01:15:44.000 : en:22. Hibbert helps Ralph prepare before the race
01:19:32.000 : en:23. Boston Marathon
01:27:48.000 : en:24. Ralph visits his mom after the race
01:31:13.000 : en:25. Ralph finds the silver lining
01:33:18.000 : en:26. Patron Saint of Innocence
01:34:01.000 : en:27. End Credits

Скриншоты



To download the content you need:
1. Download and install torrent client [for Windows] or for mobile system
2. Click on [Download]
Attention.
If the test YOU are NOT a ROBOT - does not work, then You are using an outdated browser.
Install the current browser and click on [Download]
Security: torrent client is allowed by Kaspersky.

[asmlocator.ru].t639572.torrent 
Torrent: Registered [ 2019-05-28 10:00 ] · C50A1766E9CBEC3568D20CA1054033ECF6021B6B

Download .torrent

Download

33 KB

Status: checked
Completed: 0 times
Size: 6.54 GB
terms.php
[Profile] [PM]
Display posts:    
Reply to topic

Current time is: 25-Jun 10:41

All times are UTC ± 0



You cannot post new topics in this forum
You cannot reply to topics in this forum
You cannot edit your posts in this forum
You cannot delete your posts in this forum
You cannot vote in polls in this forum
You cannot attach files in this forum
You can download files in this forum