[Евгений Карташов, Photoshop-master] Практика повышения резкости [2019, обработка фотографий, повышения резкости, HDRip, RUS] (Видеоурок)

Reply to topic
DL-List and Torrent activity
Size:  2.28 GB   |    Registered:  1 month   |    Completed:  5 times

Seeder not seen: 23 minutes

 
   
 
 
Author Message

star21 ®

Gender: Female

Longevity: 3 years 7 months

Posts: 552119

Location: Екатеринбург

Post 24-May-2019 16:10

[Quote]

Практика повышения резкости Автор: Евгений Карташов
Страна: Россия
Тематика: обработка фотографий, повышения резкости
Тип раздаваемого материала: Видеоурок
Продолжительность: 2:52:00
Год выпуска: 2019Язык: Русский
Перевод: Не требуетсяСсылка на видеокурс на сайте производителя: photoshop-master.orgОписание: Повышение резкости является финальной операцией при обработке фотографии. И на этом этапе можно либо значительно улучшить визуальное восприятие, либо полностью испортить фотографию.В этом курсе вы получите ответы на такие вопросы как: почему нужно повышать резкость при обработке; в чем состоит основной принцип повышения резкости; какие проблемы возникают при использовании различных методов повышения резкости; как решать эти проблемы в ходе работы, либо не допускать их появления; какие способы повышения резкости подходят для портрета или пейзажа.Доп. информация: Файл содержит бонус и исходники (PSD)Качество: HDRip
Формат: AVI
Видео кодек: H.264
Аудио кодек: AAC
Видео: AVC; 1920x1080; 16:9; 3966 Кбит/сек; 30,000 кадров/сек
Аудио: AAC LC; 132 Кбит/сек; 44,1 КГц; 2 канала
Время раздачи: 24/7 до первых 5 скачавших

Mediainfo

Полное имя                               : C:\Users\Desktop\Практика повышения резкости (2019)\Практика повышения резкости (2019)\Мастер-класс\01_teoreticheskie_osnovy.mp4Формат                                   : MPEG-4Профиль формата                          : Base MediaИдентификатор кодека                     : isom (isom/iso2/avc1/mp41)Размер файла                             : 147 МбайтПродолжительность                        : 5 м. 1 с.Режим общего битрейта                    : ПостоянныйОбщий поток                              : 4104 Кбит/секДата кодирования                         : UTC 2019-03-03 15:56:46Дата пометки                             : UTC 2019-03-03 15:56:46Программа кодирования                    : Lavf57.71.100ВидеоИдентификатор                            : 1Формат                                   : AVCФормат/Информация                        : Advanced Video CodecПрофиль формата                          : High@L4Настройки формата                        : CABAC / 1 Ref FramesПараметр CABAC формата                   : ДаПараметр RefFrames формата               : 1 кадрПараметр GOP формата                     : M=1, N=25Идентификатор кодека                     : avc1Идентификатор кодека/Информация          : Advanced Video CodingПродолжительность                        : 5 м. 1 с.Вид битрейта                             : ПостоянныйБитрейт                                  : 3966 Кбит/секНоминальный битрейт                      : 4943 Кбит/секШирина                                   : 1920 пикселейВысота                                   : 1080 пикселейСоотношение сторон                       : 16:9Режим частоты кадров                     : ПостоянныйЧастота кадров                           : 30,000 кадров/секЦветовое пространство                    : YUVСубдискретизация насыщенности            : 4:2:0Битовая глубина                          : 8 битТип развёртки                            : ПрогрессивнаяБит/(Пиксели*Кадры)                      : 0.064Размер потока                            : 142 Мбайт (97%)Язык                                     : EnglishДата кодирования                         : UTC 2019-03-03 15:56:46Дата пометки                             : UTC 2019-03-03 15:56:46Codec configuration box                  : avcCАудиоИдентификатор                            : 2Формат                                   : AAC LCФормат/Информация                        : Advanced Audio Codec Low ComplexityИдентификатор кодека                     : mp4a-40-2Продолжительность                        : 5 м. 1 с.Вид битрейта                             : ПостоянныйБитрейт                                  : 132 Кбит/секКаналы                                   : 2 каналаChannel layout                           : L RЧастота                                  : 44,1 КГцЧастота кадров                           : 43,066 кадра/сек (1024 SPF)Метод сжатия                             : С потерямиРазмер потока                            : 4,72 Мбайт (3%)Язык                                     : EnglishDefault                                  : ДаAlternateGroup/String                    : 1Дата кодирования                         : UTC 2019-03-03 15:56:46Дата пометки                             : UTC 2019-03-03 15:56:46

Скриншоты


To download the content you need:
1. Download and install torrent client [for Windows] or for mobile system
2. Click on [Download]
Attention.
If the test YOU are NOT a ROBOT - does not work, then You are using an outdated browser.
Install the current browser and click on [Download]
Security: torrent client is allowed by Kaspersky.

[asmlocator.ru].t639347.torrent 
Torrent: Registered [ 2019-05-24 16:10 ] · 68B5CE93520ECFF360A4370A3E1CD6AB19D413C2

Download .torrent

Download

14 KB

Status: checked
Completed: 5 times
Size: 2.28 GB
terms.php
[Profile] [PM]

noinsky

Gender: Male

Longevity: 21 day

Posts: 2

Location: ulsk

Post 03-Jun-2019 16:30 (after 10 days)

[Quote]

Спасибо большое!!!
записался на вебинар, но забыл, проспал...
[Profile] [PM]
Display posts:    
Reply to topic

Current time is: 25-Jun 08:59

All times are UTC ± 0



You cannot post new topics in this forum
You cannot reply to topics in this forum
You cannot edit your posts in this forum
You cannot delete your posts in this forum
You cannot vote in polls in this forum
You cannot attach files in this forum
You can download files in this forum