Люпен всё ещё рвётся вперёд? / Lupin wa Ima mo Moete Iru ka? / Lupin the Third: Is Lupin Still Burning? [OVA] [1 из 1] [Без хардсаба] [RUS(int), JAP+SUB] [2018, Приключения, Экшен, Комедия, Сейнен, DVDRip]

Ответить на тему
Статистика раздачи
Размер:  701 MB   |    Зарегистрирован:  6 месяцев 17 дней   |    Скачан:  0 раз

Полного источника не было: 58 минут

 
   
 
 
Автор Сообщение

star21 ®

Пол: Женский

Стаж: 4 года 1 месяц

Сообщений: 551946

Откуда: Екатеринбург

Создавать темы 19-Май-2019 11:55

[Цитировать]

Страна: Япония
Год выпуска: 2018
Жанр: Приключения, Экшен, Комедия, Сейнен
Тип: OVA
Продолжительность: 1 эп. ~27 мин.
Режиссер: Monkey Punch, Дзюн Кавагоэ
Студия: TMS EntertainmentОзвучка:
1. LE-Production (одноголосая, закадровая) — Сэмпл
Муж. — Тимиркан Сиюхов
Субтитры:
1. Тимиркан Сиюхов
2. naive
3. Английские субтитры
Описание: Юбилейная OVA, выпущенная в качестве бонуса для изданий Lupin III Part V на BD/DVD.Качество: DVDRip
Тип релиза: Без хардсаба, без линковки
Формат видео: MKV
Релиз/Автор рипа: [Commie]
Совместимость с бытовыми плеерами: Нет
Видео: AVC, 1024x576, 2704 kbps, 23,976fps, 10 bit
Аудио: AC3, 448 kbps, 48 Hz, 2 ch, JAP (в составе контейнера)
Аудио 1: AC3, 448 kbps, 48 Hz, 2 ch, RUS (в составе контейнера)
Субтитры 1: ASS, RUS (в составе контейнера)
Субтитры 2: ASS, RUS (в составе контейнера)
Субтитры 3: ASS, ENG (в составе контейнера)11 апреля, скончался автор манги Lupin the 3rd , Monkey Punch, и, как сообщают источники, причиной смерти стало воспаление лёгких (или в простонародье - пневмония).
На момент смерти ему был 81 год, и всего лишь через полтора месяца ему могло бы исполниться 82 года...

Подробные тех. данные

ОбщееУникальный идентификатор                 : 93990817994715586359994661315474061881 (0x46B5F91C409CF99B4F2026515F237A39)Полное имя                               : E:\One ep\[Commie] Lupin the Third - 50th Anniversary Special [DVD 576p AC3]\[Commie] Lupin the Third - Lupin wa Ima mo Moete Iru ka [DVD 576p AC3].mkvФормат                                   : MatroskaВерсия формата                           : Version 4Размер файла                             : 701 МбайтПродолжительность                        : 27 м. 10 с.Общий поток                              : 3605 Кбит/секДата кодирования                         : UTC 2019-05-07 20:07:31Программа кодирования                    : mkvmerge v31.0.0 ('Dolores In A Shoestand') 64-bitБиблиотека кодирования                   : libebml v1.3.6 + libmatroska v1.4.9Attachments                              : PowellAntique.ttf / SubClearSans-Bold.ttf / SubClearSans-BoldItalic.ttfВидеоИдентификатор                            : 1Формат                                   : AVCФормат/Информация                        : Advanced Video CodecПрофиль формата                          : High 10@L5Настройки формата                        : CABAC / 16 Ref FramesПараметр CABAC формата                   : ДаПараметр RefFrames формата               : 16 кадровИдентификатор кодека                     : V_MPEG4/ISO/AVCПродолжительность                        : 27 м. 10 с.Битрейт                                  : 2704 Кбит/секШирина                                   : 1024 пикселяВысота                                   : 576 пикселейСоотношение сторон                       : 16:9Режим частоты кадров                     : ПостоянныйЧастота кадров                           : 23,976 (24000/1001) кадра/секЦветовое пространство                    : YUVСубдискретизация насыщенности            : 4:2:0Битовая глубина                          : 10 битТип развёртки                            : ПрогрессивнаяБит/(Пиксели*Кадры)                      : 0.191Размер потока                            : 526 Мбайт (75%)Библиотека кодирования                   : x264 core 157 r2867+103 0d6443f t_mod_Custom_2 [10-bit@all X86_64]Настройки программы                      : cabac=1 / ref=16 / deblock=1:0:0 / analyse=0x3:0x133 / me=umh / subme=10 / psy=1 / fade_compensate=0.72 / psy_rd=0.80:0.20 / mixed_ref=1 / me_range=24 / chroma_me=1 / trellis=2 / 8x8dct=1 / cqm=0 / deadzone=21,11 / fast_pskip=1 / chroma_qp_offset=-3 / threads=12 / lookahead_threads=3 / sliced_threads=0 / nr=0 / decimate=1 / interlaced=0 / bluray_compat=0 / constrained_intra=0 / fgo=0 / bframes=16 / b_pyramid=2 / b_adapt=2 / b_bias=0 / direct=3 / weightb=1 / open_gop=0 / weightp=2 / keyint=250 / keyint_min=23 / scenecut=40 / intra_refresh=0 / rc_lookahead=60 / rc=crf / mbtree=1 / crf=16.0000 / qcomp=0.72 / qpmin=0:0:0 / qpmax=81:81:81 / qpstep=4 / ip_ratio=1.40 / aq=3:0.80 / aq-sensitivity=10.00 / aq-factor=1.00:1.00:1.00 / aq2=0 / aq3=0Язык                                     : EnglishDefault                                  : ДаForced                                   : НетАудио #1Идентификатор                            : 2Формат                                   : AC-3Формат/Информация                        : Audio Coding 3Коммерческое название                    : Dolby DigitalИдентификатор кодека                     : A_AC3Продолжительность                        : 27 м. 10 с.Вид битрейта                             : ПостоянныйБитрейт                                  : 448 Кбит/секКаналы                                   : 2 каналаChannel layout                           : L RЧастота                                  : 48,0 КГцЧастота кадров                           : 31,250 кадров/сек (1536 SPF)Битовая глубина                          : 16 битМетод сжатия                             : С потерямиРазмер потока                            : 87,1 Мбайт (12%)Язык                                     : JapaneseServiceKind/String                       : Complete MainDefault                                  : НетForced                                   : НетАудио #2Идентификатор                            : 4Формат                                   : AC-3Формат/Информация                        : Audio Coding 3Коммерческое название                    : Dolby DigitalИдентификатор кодека                     : A_AC3Продолжительность                        : 27 м. 10 с.Вид битрейта                             : ПостоянныйБитрейт                                  : 448 Кбит/секКаналы                                   : 2 каналаChannel layout                           : L RЧастота                                  : 48,0 КГцЧастота кадров                           : 31,250 кадров/сек (1536 SPF)Битовая глубина                          : 16 битМетод сжатия                             : С потерямиРазмер потока                            : 87,1 Мбайт (12%)Заголовок                                : Тимиркан СиюховЯзык                                     : RussianServiceKind/String                       : Complete MainDefault                                  : ДаForced                                   : НетТекст #1Идентификатор                            : 3Формат                                   : ASSИдентификатор кодека                     : S_TEXT/ASSИдентификатор кодека/Информация          : Advanced Sub Station AlphaПродолжительность                        : 25 м. 25 с.Битрейт                                  : 93 бит/секElementCount                             : 403Метод сжатия                             : Без потерьРазмер потока                            : 17,3 Кбайт (0%)Язык                                     : EnglishDefault                                  : НетForced                                   : НетТекст #2Идентификатор                            : 5Формат                                   : ASSИдентификатор кодека                     : S_TEXT/ASSИдентификатор кодека/Информация          : Advanced Sub Station AlphaПродолжительность                        : 25 м. 25 с.Битрейт                                  : 145 бит/секElementCount                             : 401Метод сжатия                             : Без потерьРазмер потока                            : 27,2 Кбайт (0%)Заголовок                                : Тимиркан СиюховЯзык                                     : RussianDefault                                  : НетForced                                   : НетТекст #3Идентификатор                            : 6Формат                                   : ASSИдентификатор кодека                     : S_TEXT/ASSИдентификатор кодека/Информация          : Advanced Sub Station AlphaПродолжительность                        : 25 м. 30 с.Битрейт                                  : 133 бит/секElementCount                             : 394Метод сжатия                             : Без потерьРазмер потока                            : 25,0 Кбайт (0%)Заголовок                                : naiveЯзык                                     : RussianDefault                                  : НетForced                                   : НетМеню00:00:00.033                             : en:Intro00:02:08.390                             : en:OP00:03:33.520                             : en:Episode00:25:50.520                             : en:ED

Скриншоты

Чтобы скачать этот контент, Вам необходимо:
1. Скачать и установить торрент-клиент [клик для Windows], (для мобильного найдите на Play Маркет).
2. Кликнуть по [Скачать]


Внимание.
Если проверка ВЫ НЕ РОБОТ - не работает, значит Вы используете устаревший браузер.
Установите актуальный браузер и повторно кликните по [Скачать]
Безопасность: торрент-клиент разрешён АВ Касперского.

[asmlocator.ru].t638678.torrent 
Торрент: Зарегистрирован [ 2019-05-19 11:55 ] · DDCBCBB76E9633C6527F375873BCC1B81B4F08F6

Скачать .torrent

Скачать

14 KB

Статус: проверено
Скачан: 0 раз
Размер: 701 MB
terms.php
[Профиль] [ЛС]

Richardendof

Пол:

Стаж: 6 дней

Сообщений: 3

Откуда: Norway

Создавать темы 02-Дек-2019 18:45 (спустя 6 месяцев 14 дней)

[Цитировать]

Наша сервисная служба транспортировки образована с намерением, чтоб нашим покупателям было практично. У нас компании ОАО ЛЮДМИЛ Ярославль имеется собственный автопарк так же штат рассыльных. Мы всегда готовы привезти продукт вам в удобное время. Для этой цели необходимо только-то выберите такую сервисную услугу. В этом случае ваш продукт будет доставлен наиболее точно и быстро. Вы можете рассчитывать на превосходное качество печати, своевременное сопровождение и индивидуальное решение.
пакет дой пак купить
Знаменитая компания ЗАО Кабинов Новочеркасск стремится предоставить покупателю, предпочтительный сервис. Наш гигантский запас товаров( пакетах с вырубной ручкой) на складе, быстрое приём заявок, прекрасное сопровождение посетителей и относительно низкая расценка позволяет купить сегодня пакетах с вырубной ручкой всем. Корпорация изготавливает, импортирует и реализует все виды упаковки( пакетов и мешков для мусора).
[Профиль] [ЛС]
Показать сообщения:    
Ответить на тему

Текущее время: 06-Дек 06:58

Часовой пояс: UTC ± 0



Вы не можете начинать темы
Вы не можете отвечать на сообщения
Вы не можете редактировать свои сообщения
Вы не можете удалять свои сообщения
Вы не можете голосовать в опросах
Вы не можете прикреплять файлы к сообщениям
Вы можете скачивать файлы
Верим фактам, а не вранью Путина! Факт, что Правительство ведёт Россию к истреблению.
Так как численность населения падает, даже не смотря на приток эмигрантов!
Русская нация вымирает и вырождается, смешиваясь с эмигрантами!
Факт, что военных и граждан предприятий заставляют голосовать за партию Единая Россия и Путина
ПОД СТРАХОМ УВОЛЬНЕНИЯ!
Нам не нужно Правительство, блокирующее личную жизнь, интернет, нарушающее сохранность данных.
Все эти действия финансируются за счёт народа!