[MULT] Король Лев: Трилогия / The Lion King: Trilogy (Роджер Аллерс / Roger Allers, Роб Минкофф / Rob Minkoff, Даррел Руни / Darrell Rooney, Роб ЛаДука / Rob LaDuka, Брэдли Рэймонд / Bradley Raymond) [1994, 1998, 2004, мультфильм, BDRip] [MP4, 480x]

Reply to topic
DL-List and Torrent activity
Size:  1.07 GB   |    Registered:  2 months 2 days   |    Completed:  0 times

Seeder not seen: Never

 
   
 
 
Author Message

star21 ®

Gender: Female

Longevity: 3 years 8 months

Posts: 552042

Location: Екатеринбург

Post 15-May-2019 23:35

[Quote]

Король Лев: Трилогия / The Lion King: Trilogy

Король Лев 1994

Король Лев / The Lion King Год выпуска: 1994
Страна: США
Жанр: драма, мюзикл, приключения, семейный, мультфильм
Продолжительность: 01:28:23
Перевод: русский Профессиональный (полное дублирование) BD CEE
Субтитры: нетРежиссеры: Роджер Аллерс / Roger Allers, Роб Минкофф / Rob MinkoffРоли озвучивали: Джонатан Тейлор Томас, Мэттью Бродерик, Джеймс Эрл Джонс, Джереми Айронс, Мойра Келли, Никета Калам, Эрни Сабелла, Натан Лейн, Роберт Гийом, Роуэн Эткинсон...Описание: У величественного Короля-Льва Муфасы рождается наследник по имени Симба. Уже в детстве любознательный малыш становится жертвой интриг своего завистливого дяди Шрама, мечтающего о власти.
Симба познаёт горе утраты, предательство и изгнание, но в конце концов обретает верных друзей и находит любимую. Закалённый испытаниями, он в нелёгкой борьбе отвоёвывает своё законное место в «Круге жизни», осознав, что значит быть настоящим Королём .
Качество: BDRip / рип с BDRemux 1080p
Формат: MP4
Видео кодек: XviD
Аудио кодек: AAC
Видео: 480x272 AR:1.76 479 kbps 23.976 fps
Аудио: [Russian] 2ch 48 kHz 128 kbps - [Dub] Профессиональный (полное дублирование) BD CEE

ТХ/MediaInfo

GeneralComplete name                            : J:\Torrents\The Lion King Trilogy.1994-2004.BDRip.XviD.480x\The Lion King.1994.BDRip.XviD.480x.rip by Frost O.S.mp4Format                                   : MPEG-4Format profile                           : Base MediaCodec ID                                 : isom (isom)File size                                : 386 MiBDuration                                 : 1 h 28 minOverall bit rate mode                    : VariableOverall bit rate                         : 611 kb/sEncoded date                             : UTC 2019-05-07 22:26:27Tagged date                              : UTC 2019-05-07 22:26:27Writing application                      : My MP4Box GUI 0.6.0.6VideoID                                       : 1Format                                   : MPEG-4 VisualFormat profile                           : Advanced Simple@L5Format settings                          : BVOP / Custom MatrixFormat settings, BVOP                    : YesFormat settings, QPel                    : NoFormat settings, GMC                     : No warppointsFormat settings, Matrix                  : CustomCodec ID                                 : mp4v-20Duration                                 : 1 h 28 minBit rate mode                            : VariableBit rate                                 : 479 kb/sMaximum bit rate                         : 4 252 kb/sWidth                                    : 480 pixelsHeight                                   : 272 pixelsDisplay aspect ratio                     : 16:9Frame rate mode                          : VariableFrame rate                               : 23.976 (24000/1001) FPSMinimum frame rate                       : 11.988 FPSMaximum frame rate                       : 23.976 FPSColor space                              : YUVChroma subsampling                       : 4:2:0Bit depth                                : 8 bitsScan type                                : ProgressiveCompression mode                         : LossyBits/(Pixel*Frame)                       : 0.153Stream size                              : 303 MiB (78%)Title                                    : The Lion King.1994.BDRip.XviD.480x.rip by Frost O.SWriting library                          : XviD 1.2.1 (UTC 2008-12-04)Encoded date                             : UTC 2019-05-07 22:26:27Tagged date                              : UTC 2019-05-07 22:26:30AudioID                                       : 2Format                                   : AACFormat/Info                              : Advanced Audio CodecFormat profile                           : LCCodec ID                                 : mp4a-40-2Duration                                 : 1 h 28 minBit rate mode                            : VariableBit rate                                 : 128 kb/sMaximum bit rate                         : 138 kb/sChannel(s)                               : 2 channelsChannel positions                        : Front: L RSampling rate                            : 48.0 kHzFrame rate                               : 46.875 FPS (1024 SPF)Compression mode                         : LossyStream size                              : 80.9 MiB (21%)Title                                    : Russian / Dub, BD CEEEncoded date                             : UTC 2019-05-07 22:26:29Tagged date                              : UTC 2019-05-07 22:26:30

Скриншоты



Король-лев 2: Гордость Симбы 1998

Король-лев 2: Гордость Симбы / The Lion King II: Simba's Pride Год выпуска: 1998
Страна: США
Жанр: драма, мюзикл, приключения, семейный, мультфильм
Продолжительность: 01:20:49
Перевод: русский Профессиональный (полное дублирование) BD CEE
Субтитры: нетРежиссеры: Даррел Руни / Darrell Rooney, Роб ЛаДука / Rob LaDukaРоли озвучивали: Мэттью Бродерик, Мойра Келли, Нив Кэмпбелл, Лиз Колэуэй, Мишель Хорн, Эшли Эднер, Charity Sanoy, Сюзанн Плешетт, Энди Дик, Райан О’Донохью...Описание: Много времени утекло с тех пор, как лев Симба сверг своего злого дядю Шрама и вернул трон короля саванны. У него и королевы Налы уже подрастает дочь — принцесса Киара.
Однако порученная легкомысленным заботам наших старых знакомых Тимона и Пумбы, проказливая и непослушная Киара пока никак не похожа на будущую королеву. Однажды сбежав в Запретную Землю, она встречает там львенка Кову, который становится ее лучшим другом.
Да только принцесса не знает, что эта дружба может стоить ей короны! Кову — наследник Шрама, и пусть он не пошел в старого интригана, его мать Зира спит и видит, как бы усадить сына на трон.
И чем прочнее дружба между Киарой и Кову, тем гуще тучи над племенем Симбы…
Качество: BDRip / рип с BDRemux 1080p
Формат: MP4
Видео кодек: XviD
Аудио кодек: AAC
Видео: 480x272 AR:1.76 503 kbps 23.976 fps
Аудио: [Russian] 2ch 48 kHz 128 kbps - [Dub] Профессиональный (полное дублирование) BD CEE

ТХ/MediaInfo

GeneralComplete name                            : J:\Torrents\The Lion King Trilogy.1994-2004.BDRip.XviD.480x\The Lion King II Simba's Pride.1998.BDRip.XviD.480x.rip by Frost O.S.mp4Format                                   : MPEG-4Format profile                           : Base MediaCodec ID                                 : isom (isom)File size                                : 367 MiBDuration                                 : 1 h 20 minOverall bit rate mode                    : VariableOverall bit rate                         : 635 kb/sEncoded date                             : UTC 2019-05-07 22:27:43Tagged date                              : UTC 2019-05-07 22:27:43Writing application                      : My MP4Box GUI 0.6.0.6VideoID                                       : 1Format                                   : MPEG-4 VisualFormat profile                           : Advanced Simple@L5Format settings                          : BVOP / Custom MatrixFormat settings, BVOP                    : YesFormat settings, QPel                    : NoFormat settings, GMC                     : No warppointsFormat settings, Matrix                  : CustomCodec ID                                 : mp4v-20Duration                                 : 1 h 20 minBit rate mode                            : VariableBit rate                                 : 503 kb/sMaximum bit rate                         : 3 424 kb/sWidth                                    : 480 pixelsHeight                                   : 272 pixelsDisplay aspect ratio                     : 16:9Frame rate mode                          : ConstantFrame rate                               : 23.976 (24000/1001) FPSColor space                              : YUVChroma subsampling                       : 4:2:0Bit depth                                : 8 bitsScan type                                : ProgressiveCompression mode                         : LossyBits/(Pixel*Frame)                       : 0.161Stream size                              : 291 MiB (79%)Title                                    : The Lion King II Simba's Pride.1998.BDRip.XviD.480x.rip by Frost O.SWriting library                          : XviD 1.2.1 (UTC 2008-12-04)Encoded date                             : UTC 2019-05-07 22:27:43Tagged date                              : UTC 2019-05-07 22:27:45AudioID                                       : 2Format                                   : AACFormat/Info                              : Advanced Audio CodecFormat profile                           : LCCodec ID                                 : mp4a-40-2Duration                                 : 1 h 20 minBit rate mode                            : VariableBit rate                                 : 128 kb/sMaximum bit rate                         : 136 kb/sChannel(s)                               : 2 channelsChannel positions                        : Front: L RSampling rate                            : 48.0 kHzFrame rate                               : 46.875 FPS (1024 SPF)Compression mode                         : LossyStream size                              : 74.0 MiB (20%)Title                                    : Russian / Dub, BD CEEEncoded date                             : UTC 2019-05-07 22:27:45Tagged date                              : UTC 2019-05-07 22:27:45

Скриншоты



Король Лев 3: Хакуна матата 2004

Король Лев 3: Хакуна матата / The Lion King 3: Hakuna Matata / The Lion King 1½ Год выпуска: 2004
Страна: Австралия, США
Жанр: мультфильм, комедия, приключения
Продолжительность: 01:16:14
Перевод: русский Профессиональный (полное дублирование) BD CEE
Субтитры: нетРежиссер: Брэдли Рэймонд / Bradley RaymondРоли озвучивали: Натан Лэйн, Эрни Сабелла, Джули Кавнер, Джерри Стиллер, Мэттью Бродерик, Роберт Гийом, Мойра Келли, Вупи Голдберг, Чич Марин, Джим Каммингс...Описание: Главными героями мультфильма станут всеобщие любимцы Тимон и Пумба! Вы узнаете об этих закадычных друзьях много нового, например, о том, как они впервые встретились, что за потрясающие приключения вместе прожили и на какие удивительные подвиги их сподвигло знаменитое знакомство с будущем королем саванны Симбой.
А также познакомитесь с новыми забавными героями, которые точно не дадут вам скучать — заботливой мамочкой Тимона и его ужасно саркастичным дядей Максом! Скучно не будет!
Качество: BDRip / рип с BDRemux 1080p
Формат: MP4
Видео кодек: XviD
Аудио кодек: AAC
Видео: 480x280 AR:1.71 500 kbps 23.976 fps
Аудио: [Russian] 2ch 48 kHz 128 kbps - [Dub] Профессиональный (полное дублирование) BD CEE

ТХ/MediaInfo

GeneralComplete name                            : J:\Torrents\The Lion King Trilogy.1994-2004.BDRip.XviD.480x\The Lion King 3 Hakuna Matata.2004.BDRip.XviD.480x.rip by Frost O.S.mp4Format                                   : MPEG-4Format profile                           : Base MediaCodec ID                                 : isom (isom)File size                                : 344 MiBDuration                                 : 1 h 16 minOverall bit rate mode                    : VariableOverall bit rate                         : 631 kb/sEncoded date                             : UTC 2019-05-07 22:28:55Tagged date                              : UTC 2019-05-07 22:28:55Writing application                      : My MP4Box GUI 0.6.0.6VideoID                                       : 1Format                                   : MPEG-4 VisualFormat profile                           : Advanced Simple@L5Format settings                          : BVOP / Custom MatrixFormat settings, BVOP                    : YesFormat settings, QPel                    : NoFormat settings, GMC                     : No warppointsFormat settings, Matrix                  : CustomCodec ID                                 : mp4v-20Duration                                 : 1 h 16 minBit rate mode                            : VariableBit rate                                 : 500 kb/sMaximum bit rate                         : 5 616 kb/sWidth                                    : 480 pixelsHeight                                   : 280 pixelsDisplay aspect ratio                     : 1.714Frame rate mode                          : VariableFrame rate                               : 23.976 (23976/1000) FPSMinimum frame rate                       : 11.988 FPSMaximum frame rate                       : 23.976 FPSOriginal frame rate                      : 23.976 (24000/1001) FPSColor space                              : YUVChroma subsampling                       : 4:2:0Bit depth                                : 8 bitsScan type                                : ProgressiveCompression mode                         : LossyBits/(Pixel*Frame)                       : 0.155Stream size                              : 272 MiB (79%)Title                                    : The Lion King 3 Hakuna Matata.2004.BDRip.XviD.480x.rip by Frost O.SWriting library                          : XviD 1.2.1 (UTC 2008-12-04)Encoded date                             : UTC 2019-05-07 22:28:55Tagged date                              : UTC 2019-05-07 22:28:57AudioID                                       : 2Format                                   : AACFormat/Info                              : Advanced Audio CodecFormat profile                           : LCCodec ID                                 : mp4a-40-2Duration                                 : 1 h 16 minBit rate mode                            : VariableBit rate                                 : 128 kb/sMaximum bit rate                         : 138 kb/sChannel(s)                               : 2 channelsChannel positions                        : Front: L RSampling rate                            : 48.0 kHzFrame rate                               : 46.875 FPS (1024 SPF)Compression mode                         : LossyStream size                              : 69.8 MiB (20%)Title                                    : Russian / Dub, BD CEEEncoded date                             : UTC 2019-05-07 22:28:57Tagged date                              : UTC 2019-05-07 22:28:57

Скриншоты




To download the content you need:
1. Download and install torrent client [for Windows] or for mobile system
2. Click on [Download]
Attention.
If the test YOU are NOT a ROBOT - does not work, then You are using an outdated browser.
Install the current browser and click on [Download]
Security: torrent client is allowed by Kaspersky.

[asmlocator.ru].t637049.torrent 
Torrent: Registered [ 2019-05-15 23:35 ] · 957851187C27F451B36D2CDEB4439AC42E992DEB

Download .torrent

Download

11 KB

Status: checked
Completed: 0 times
Size: 1.07 GB
terms.php
[Profile] [PM]
Display posts:    
Reply to topic

Current time is: 18-Jul 05:44

All times are UTC ± 0



You cannot post new topics in this forum
You cannot reply to topics in this forum
You cannot edit your posts in this forum
You cannot delete your posts in this forum
You cannot vote in polls in this forum
You cannot attach files in this forum
You can download files in this forum