[GeekBrains] Создатель игровой вселенной: геймдизайнер [2019, RUS]

Reply to topic
DL-List and Torrent activity
Size:  5.3 GB   |    Registered:  2 months 1 day   |    Completed:  9 times

Seeder not seen: 38 minutes

 
   
 
 
Author Message

star21 ®

Gender: Female

Longevity: 3 years 8 months

Posts: 552050

Location: Екатеринбург

Post 15-May-2019 23:35

[Quote]

Создатель игровой вселенной: геймдизайнер Год выпуска: 2019
Производитель: GeekBrains
Сайт производителя: https://gamedesign.geekbrains.ru/?2f8dcf2c
Автор: Иоанн Павловский, Михаил Сипцов
Продолжительность: ≈ 40 часов
Тип раздаваемого материала: Видеоурок
Язык: Русский
Описание: Онлайн-курс, который объяснит, как устроена гейм-индустрия. Вы пройдете полный цикл создания игры и освоите профессию геймдизайнера.
Геймдизайнер – человек, разрабатывающий игровую вселенную: от общей идеи, жанра и сюжета - до отдельных персонажей, квестов и локаций.

Содержание

01. Вводная часть.
Гейм-индустрия: основные понятия и принципы проектирования игр02. Специализация.
Погружение в специальность
  • Вводный курс в геймдизайн
    Знакомство с профессией и работой с которой она связана. Обсуждения программы курса, её задач и итогового результата. Изучаем основные понятия и философию геймдизайна в целом
  • Сюжет и мир игры
    Изучаем специфику работы в разных жанрах и направлениях. Советы и полезные приемы при работе с разными жанрами. Изучаем монетизацию
  • От идеи до документации
    Закрепляем на практике процесс разработки идей. Проводим исследования рынка, изучаем конкурентов, подмечаем интересные идеи и учимся на их ошибках. Разрабатываем монетизацию. Пишем питч и концепт документ для будущего прототипа.
  • Unreal Blueprints
    Учимся создавать прототипы в UE4. Делаем прототип по готовому концепту
  • Баланс и Экономика
    Изучим основные правила создания внутриигровой экономики и баланса
  • Казуальные игры
    Изучаем индустрию казуальных игр, то как их создают и чем занимаются геймдизайнеры в таких проектах
  • Сюжетные игры
    Изучаем индустрию сюжетных игр, то как их создают и чем занимаются геймдизайнеры в таких проектах
    03. Стажировка
    После завершения обучения, все студенты будут проходить стажировку в кросс-функциональных командах. Результатом стажировки станет созданная игра

Как устроен курс

Погружение в процесс
За первые два месяца вы освоите принципы, по которым создаются игры и существует индустрия.
Специализация
Специализация - восемь месяцев интенсивной учебы по выбранной профессии: азы и тонкости, практические задания, теория, общение с представителями индустрии по выбранному направлению.
Стажировка
Итог обучения-совместная разработка игры, которую оценят эксперты рынка и инвесторы: испытай силы на реальной задаче!

Кому будет полезен курс?

Видео: AVC; 1280x720; 16:9; 30,000 кадров/сек; 112 Кбит/сек
Аудио: AAC LC; 44,1 КГц; 128 Кбит/сек; 2 канала
Время раздачи: 24/7 до первых 5 скачавших

Скриншоты

Mediainfo

:
Полное имя                               : C:\Users\Desktop\[GeekBrains] Создатель игровой вселенной_ геймдизайнер - Часть 1\Урок 1. Основы Геймдизайна\Урок 1. Основы Геймдизайна.mp4Формат                                   : MPEG-4Профиль формата                          : Base Media / Version 2Идентификатор кодека                     : mp42 (isom/mp42)Размер файла                             : 265 МбайтПродолжительность                        : 2 ч. 32 м.Режим общего битрейта                    : ПеременныйОбщий поток                              : 243 Кбит/секДата кодирования                         : UTC 2019-01-15 19:53:27Дата пометки                             : UTC 2019-01-15 19:53:27gsst                                     : 0gstd                                     : 9149939ВидеоИдентификатор                            : 1Формат                                   : AVCФормат/Информация                        : Advanced Video CodecПрофиль формата                          : Main@L3.1Настройки формата                        : CABAC / 3 Ref FramesПараметр CABAC формата                   : ДаПараметр RefFrames формата               : 3 кадраИдентификатор кодека                     : avc1Идентификатор кодека/Информация          : Advanced Video CodingПродолжительность                        : 2 ч. 32 м.Битрейт                                  : 112 Кбит/секШирина                                   : 1280 пикселейВысота                                   : 720 пикселейСоотношение сторон                       : 16:9Режим частоты кадров                     : ПостоянныйЧастота кадров                           : 30,000 кадров/секЦветовое пространство                    : YUVСубдискретизация насыщенности            : 4:2:0Битовая глубина                          : 8 битТип развёртки                            : ПрогрессивнаяБит/(Пиксели*Кадры)                      : 0.004Размер потока                            : 122 Мбайт (46%)Заголовок                                : ISO Media file produced by Google Inc. Created on: 01/15/2019.Дата кодирования                         : UTC 2019-01-15 19:53:27Дата пометки                             : UTC 2019-01-15 19:53:27Цветовой диапазон                        : LimitedОсновные цвета                           : BT.709Характеристики трансфера                 : BT.709Коэффициенты матрицы                     : BT.709Codec configuration box                  : avcCАудиоИдентификатор                            : 2Формат                                   : AAC LCФормат/Информация                        : Advanced Audio Codec Low ComplexityИдентификатор кодека                     : mp4a-40-2Продолжительность                        : 2 ч. 32 м.Вид битрейта                             : ПеременныйБитрейт                                  : 128 Кбит/секКаналы                                   : 2 каналаChannel layout                           : L RЧастота                                  : 44,1 КГцЧастота кадров                           : 43,066 кадра/сек (1024 SPF)Метод сжатия                             : С потерямиРазмер потока                            : 140 Мбайт (53%)Заголовок                                : ISO Media file produced by Google Inc. Created on: 01/15/2019.Дата кодирования                         : UTC 2019-01-15 19:53:27Дата пометки                             : UTC 2019-01-15 19:53:27

To download the content you need:
1. Download and install torrent client [for Windows] or for mobile system
2. Click on [Download]
Attention.
If the test YOU are NOT a ROBOT - does not work, then You are using an outdated browser.
Install the current browser and click on [Download]
Security: torrent client is allowed by Kaspersky.

[asmlocator.ru].t637045.torrent 
Torrent: Registered [ 2019-05-15 23:35 ] · 090BE583E1043F6BDD0311647128EF115C111D9A

Download .torrent

Download

16 KB

Status: checked
Completed: 9 times
Size: 5.3 GB
terms.php
[Profile] [PM]
Display posts:    
Reply to topic

Current time is: 17-Jul 05:43

All times are UTC ± 0



You cannot post new topics in this forum
You cannot reply to topics in this forum
You cannot edit your posts in this forum
You cannot delete your posts in this forum
You cannot vote in polls in this forum
You cannot attach files in this forum
You can download files in this forum