(organ)J.S. Bach - Orgelwerke Vol.7 - Matthias Eisenberg (BWV 565; "Orgelbuchlein" BWV 625-630; BWV 532; BWV 529; BWV 596; BWV 695; BWV 734; BWV 538) - 1992, FLAC (image+.cue) lossless

Reply to topic
DL-List and Torrent activity
Size:  393 MB   |    Registered:  3 months 8 days   |    Completed:  0 times

Seeder not seen: Never

 
   
 
 
Author Message

star21 ®

Gender: Female

Longevity: 3 years 9 months

Posts: 551989

Location: Екатеринбург

Post 15-May-2019 15:15

[Quote]

Bach Orgelwerke Vol.7
An der Führer-Orgel in St. Viktor zu Damme und der Schuke-Orgel der Hauptkirche zu Wolfenbüttel
Matthias Eisenberg
Жанр: organ
Страна-производитель диска: Germany
Год издания диска: 1992
Издатель (лейбл): RAM
Номер по каталогу: RAM 59049
Дата записи: 1990, 1992
Аудиокодек: FLAC
Тип рипа: image+.cue
Битрейт аудио: lossless
Продолжительность: 01:11:03
Источник: собственный рип
Наличие сканов в содержимом раздачи: да
Треклист:
1. Toccata con Fuga in d BWV565
Orgelbüchlein:
2. Christ lag in Todesbanden BWV 625
3. Jesus Christus, unser Heiland, der den Tod überwand BWV 626
4. Christ ist erstanden BWV 627
5. Erstanden ist der heilge Christ BWV 628
6. Erschienen ist der herrliche Tag BWV 629
7. Heut triumphieret Gottes Sohn BWV 6308. Praeludium et Fuga in D BWV 532
Sonata V in C BWV 529:
9. I Allegro
10. II Largo
11. III Allegro
Concerto d-Moll (nach Vivaldi RV 565) BWV 596:
12. I Satz - Grave - Fuga
13. II Largo e spiccato
14. III Satz15. Fantasia super "Christ lag in Todes Banden" BWV 695
16. "Nun freut euch, lieben Christen gmein" BWV 734
17. Toccata et Fuga in d BWV 538
Исполнители:
Matthias Eisenberg - organ

Лог создания рипа

Exact Audio Copy V1.3 from 2. September 2016EAC extraction logfile from 13. May 2019, 13:08Matthias Eisenberg / Bach Orgel-Werke Vol. 7Used drive  : Optiarc DVD RW AD-7283S   Adapter: 1  ID: 0Read mode               : SecureUtilize accurate stream : YesDefeat audio cache      : YesMake use of C2 pointers : NoRead offset correction                      : 48Overread into Lead-In and Lead-Out          : NoFill up missing offset samples with silence : YesDelete leading and trailing silent blocks   : NoNull samples used in CRC calculations       : YesUsed interface                              : Native Win32 interface for Win NT & 2000Used output format : Internal WAV RoutinesSample format      : 44.100 Hz; 16 Bit; StereoTOC of the extracted CD     Track |   Start  |  Length  | Start sector | End sector    ---------------------------------------------------------        1  |  0:00.00 |  9:02.12 |         0    |    40661        2  |  9:02.12 |  1:09.50 |     40662    |    45886        3  | 10:11.62 |  0:45.38 |     45887    |    49299        4  | 10:57.25 |  3:37.50 |     49300    |    65624        5  | 14:35.00 |  0:41.62 |     65625    |    68761        6  | 15:16.62 |  0:55.63 |     68762    |    72949        7  | 16:12.50 |  1:20.37 |     72950    |    78986        8  | 17:33.12 | 10:18.25 |     78987    |   125361        9  | 27:51.37 |  4:57.13 |    125362    |   147649       10  | 32:48.50 |  5:09.25 |    147650    |   170849       11  | 37:58.00 |  3:41.25 |    170850    |   187449       12  | 41:39.25 |  4:52.50 |    187450    |   209399       13  | 46:32.00 |  2:40.62 |    209400    |   221461       14  | 49:12.62 |  2:48.38 |    221462    |   234099       15  | 52:01.25 |  3:47.25 |    234100    |   251149       16  | 55:48.50 |  3:01.25 |    251150    |   264749       17  | 58:50.00 | 12:13.30 |    264750    |   319754Range status and errorsSelected range     Filename C:\Bach - Orgel-Werke Vol.7 (Eisenberg) 1992\Matthias Eisenberg - Bach Orgel-Werke Vol. 7.wav     Peak level 94.4 %     Extraction speed 4.5 X     Range quality 100.0 %     Test CRC 3F8DD1C6     Copy CRC 3F8DD1C6     Copy OKNo errors occurredAccurateRip summaryTrack  1  accurately ripped (confidence 2)  [5CB55263]  (AR v2)Track  2  accurately ripped (confidence 2)  [4ABE74B9]  (AR v2)Track  3  accurately ripped (confidence 2)  [DBE8C283]  (AR v2)Track  4  accurately ripped (confidence 2)  [DD5A4F08]  (AR v2)Track  5  accurately ripped (confidence 2)  [039A3184]  (AR v2)Track  6  accurately ripped (confidence 2)  [701DBDE4]  (AR v2)Track  7  accurately ripped (confidence 2)  [22BC9924]  (AR v2)Track  8  accurately ripped (confidence 2)  [99B55AE8]  (AR v2)Track  9  accurately ripped (confidence 2)  [D917B266]  (AR v2)Track 10  accurately ripped (confidence 2)  [753127CA]  (AR v2)Track 11  accurately ripped (confidence 2)  [FC6FB464]  (AR v2)Track 12  accurately ripped (confidence 2)  [77D9FCAC]  (AR v2)Track 13  accurately ripped (confidence 2)  [A702D97B]  (AR v2)Track 14  accurately ripped (confidence 2)  [43588D06]  (AR v2)Track 15  accurately ripped (confidence 2)  [219F35B6]  (AR v2)Track 16  accurately ripped (confidence 2)  [D62B0A33]  (AR v2)Track 17  accurately ripped (confidence 2)  [9B116EAC]  (AR v2)All tracks accurately rippedEnd of status report==== Log checksum 3424BACC81A9BCD42F52F261D00C848424B74FC631FF0064ABDEB75B48DB7017 ====

Лог проверки качества

AUDIOCHECKER v2.0 beta (build 457) - by Dester - opdester@freemail.hu~~~~~~~~~~~~~~~~~~~~~~~~~~~~~~~~~~-=== DO NOT EDIT THIS FILE! ===-Path: ...\Bach - Orgel-Werke Vol.7 (Eisenberg) 19921 -=- Matthias Eisenberg - Bach Orgel-Werke Vol. 7.wav -=- CDDA (100%)161602020

Скриншот спектра частот

Доп. информация: Recordered: Damme 11/1990 (2-7,9-16); Wolfenbüttel 1/1992 (1,8,17)

To download the content you need:
1. Download and install torrent client [for Windows] or for mobile system
2. Click on [Download]
Attention.
If the test YOU are NOT a ROBOT - does not work, then You are using an outdated browser.
Install the current browser and click on [Download]
Security: torrent client is allowed by Kaspersky.

[asmlocator.ru].t637010.torrent 
Torrent: Registered [ 2019-05-15 15:15 ] · C61322A5240CE4D1060B7B46406EDB9CF6B4211F

Download .torrent

Download

17 KB

Status: checked
Completed: 0 times
Size: 393 MB
terms.php
[Profile] [PM]
Display posts:    
Reply to topic

Current time is: 23-Aug 19:15

All times are UTC ± 0



You cannot post new topics in this forum
You cannot reply to topics in this forum
You cannot edit your posts in this forum
You cannot delete your posts in this forum
You cannot vote in polls in this forum
You cannot attach files in this forum
You can download files in this forum