[TR24][OF][FM] Толкин / Tolkien (by Thomas Newman) - 2019 (Score)

Ответить на тему
Статистика раздачи
Размер:  489 MB   |    Зарегистрирован:  8 месяцев 3 дня   |    Скачан:  0 раз

Полного источника не было: Никогда

 
   
 
 
Автор Сообщение

star21 ®

Пол: Женский

Стаж: 4 года 2 месяца

Сообщений: 551946

Откуда: Екатеринбург

Создавать темы 15-Май-2019 04:45

[Цитировать]

Thomas Newman - Tolkien Формат записи/Источник записи: [TR24][OF][FM]
Наличие водяных знаков: Нет
Год издания: 2019
Жанр: Score
Издатель (лейбл): Sony Classical
Продолжительность: 00:51:26
Наличие сканов в содержимом раздачи: Только обложка альбома
Контейнер: FLAC (*.flac)
Тип рипа: tracks
Разрядность: 24/48
Формат: PCM
Количество каналов: 2.0
Источник (релизер): highresaudio.com

Треклист:

01. Dragons (1:14)
02. Impecunious Circumstances (1:27)
03. The Great War (1:43)
04. The TCBS (2:48)
05. White As Bone (3:30)
06. John Ronald (1:33)
07. Vinátta (Friendship) (0:42)
08. Rugby (0:49)
09. Kings and Queens (1:25)
10. Army of the Dead (1:49)
11. Lúthien Tinúviel (1:45)
12. "A Good Man in the Dirt" (2:46)
13. Dutch Courage (1:47)
14. Sunlit (1:15)
15. Starlit (2:27)
16. Everything That's Good (1:19)
17. Geoffrey (1:21)
18. Eik (Oak) (1:38)
19. The Ascanius (1:53)
20. Black Rider (3:21)
21. Scuppered (Ancient Things) (2:18)
22. Other Sorts of Scars (2:51)
23. Dark Magic (1:18)
24. Fellowship (5:06)
25. Helheimr (End Crawl) (3:30)

Лог проверки качества

foobar2000 1.3.16 / Dynamic Range Meter 1.1.1log date: 2019-05-03 08:31:04--------------------------------------------------------------------------------Analyzed: Thomas Newman / Tolkien (Original Motion Picture Soundtrack)--------------------------------------------------------------------------------DR         Peak         RMS     Duration Track--------------------------------------------------------------------------------DR11      -8.47 dB   -25.29 dB      1:14 01-DragonsDR10      -2.97 dB   -18.49 dB      1:27 02-Impecunious CircumstancesDR10      -2.40 dB   -17.79 dB      1:43 03-The Great WarDR11      -1.50 dB   -17.97 dB      2:48 04-The TCBSDR12     -14.54 dB   -31.22 dB      3:30 05-White As BoneDR13      -1.13 dB   -19.98 dB      1:33 06-John RonaldDR9       -8.27 dB   -23.56 dB      0:42 07-Vinátta (Friendship)DR12      -1.32 dB   -18.71 dB      0:49 08-RugbyDR11     -12.95 dB   -29.83 dB      1:25 09-Kings and QueensDR6       -1.00 dB   -13.55 dB      1:49 10-Army of the DeadDR12      -7.04 dB   -24.52 dB      1:45 11-Lúthien TinúvielDR11      -4.51 dB   -19.49 dB      2:46 12-"A Good Man in the Dirt"DR11      -9.19 dB   -25.89 dB      1:47 13-Dutch CourageDR10      -5.08 dB   -19.77 dB      1:15 14-SunlitDR9       -5.86 dB   -22.12 dB      2:27 15-StarlitDR11      -1.57 dB   -20.30 dB      1:19 16-Everything That's GoodDR10      -7.18 dB   -22.74 dB      1:21 17-GeoffreyDR11     -10.62 dB   -27.09 dB      1:38 18-Eik (Oak)DR11      -4.72 dB   -20.50 dB      1:53 19-The AscaniusDR9       -1.00 dB   -15.22 dB      3:21 20-Black RiderDR12      -9.04 dB   -24.45 dB      2:18 21-Scuppered (Ancient Things)DR10      -9.21 dB   -25.27 dB      2:51 22-Other Sorts of ScarsDR10      -8.83 dB   -22.32 dB      1:18 23-Dark MagicDR12      -1.12 dB   -18.02 dB      5:06 24-FellowshipDR11      -1.02 dB   -17.80 dB      3:30 25-Helheimr (End Crawl)--------------------------------------------------------------------------------Number of tracks:  25Official DR value: DR11Samplerate:        48000 HzChannels:          2Bits per sample:   24Bitrate:           1469 kbpsCodec:             FLAC================================================================================

Об альбоме (сборнике)

Thomas Newman recorded his score for the upcoming biographical drama Tolkien. The film is directed by Dome Karukoski (Tom of Finland) and stars Nicholas Hoult, Lily Collins, Tom Glynn-Carney, Craig Roberts and Colm Meaney. The movie tells the story of author J.R.R. Tolkien, author of the Lord of the Ringsbooks, as he finds friendship, love and artistic inspiration among a group of fellow outcasts at school and serves as a British soldier in World War I. David Gleeson and Stephen Beresford (Pride) wrote the screenplay. Peter Chernin (War for the Planet of the Apes, Oblivion), Jenno Topping (Hidden Figures, The Greatest Showman) and David Ready (Red Sparrow) are producing the project for Chernin Entertainment, alongside Kris Thykier (Kick-Ass, The Debt) for Archery Pictures.

Чтобы скачать этот контент, Вам необходимо:
1. Скачать и установить торрент-клиент [клик для Windows], (для мобильного найдите на Play Маркет).
2. Кликнуть по [Скачать]


Внимание.
Если проверка ВЫ НЕ РОБОТ - не работает, значит Вы используете устаревший браузер.
Установите актуальный браузер и повторно кликните по [Скачать]
Безопасность: торрент-клиент разрешён АВ Касперского.

[asmlocator.ru].t636937.torrent 
Торрент: Зарегистрирован [ 2019-05-15 04:45 ] · 5ACAFE88D4DD7061F997E462ED1484D3FF61DE49

Скачать .torrent

Скачать

21 KB

Статус: проверено
Скачан: 0 раз
Размер: 489 MB
terms.php
[Профиль] [ЛС]
Показать сообщения:    
Ответить на тему

Текущее время: 18-Янв 18:39

Часовой пояс: UTC ± 0



Вы не можете начинать темы
Вы не можете отвечать на сообщения
Вы не можете редактировать свои сообщения
Вы не можете удалять свои сообщения
Вы не можете голосовать в опросах
Вы не можете прикреплять файлы к сообщениям
Вы можете скачивать файлы
Верим фактам, а не вранью Путина! Факт, что Правительство ведёт Россию к истреблению.
Так как численность населения падает, даже не смотря на приток эмигрантов!
Русская нация вымирает и вырождается, смешиваясь с эмигрантами!
Факт, что военных и граждан предприятий заставляют голосовать за партию Единая Россия и Путина
ПОД СТРАХОМ УВОЛЬНЕНИЯ!
Нам не нужно Правительство, блокирующее личную жизнь, интернет, нарушающее сохранность данных.
Все эти действия финансируются за счёт народа!