(New Age, Ambient) [CD] Toshifumi Hinata - Sarah\'s Crime - 1985 (1986 Japan Edition), FLAC (tracks+.cue), lossless

Reply to topic
DL-List and Torrent activity
Size:  216 MB   |    Registered:  3 months 9 days   |    Completed:  2 times

Seeder not seen: 54 minutes

 
   
 
 
Author Message

star21 ®

Gender: Female

Longevity: 3 years 9 months

Posts: 551989

Location: Екатеринбург

Post 14-May-2019 17:55

[Quote]

Toshifumi Hinata - Sarah's Crime Жанр: New Age, Ambient
Носитель: CD
Страна-производитель диска (релиза): Япония
Год издания: 1986
Издатель (лейбл): Alfa Records
Номер по каталогу: 32XA-58
Аудиокодек: FLAC (*.flac)
Тип рипа: tracks+.cue
Продолжительность: 00:45:02
Источник: другой трекер
Наличие сканов в содержимом раздачи: даТреклист:
01. Sarah's Crime (4:51)
02. Midsummer Night (7:16)
03. Premonition (4:38)
04. Boardwalk (5:53)
05. Sarah: I. Adagio/II. Rondeau/III. Menuet (3:38)
06. Pavement (4:07)
07. Memories (5:10)
08. Chaconne (4:49)
09. Pentimento (4:40)

Лог создания рипа

X Lossless Decoder version 20170729 (150.3)XLD extraction logfile from 2017-12-30 16:31:16 -0800日向敏文 / Sarah's CrimeUsed drive : TSSTcorp CDDVDW SE-218CB (revision MF00)Media type : Pressed CDRipper mode             : XLD Secure RipperDisable audio cache     : OK for the drive with a cache less than 1375KiBMake use of C2 pointers : NORead offset correction  : 6Max retry count         : 100Gap status              : Analyzed, Appended (except HTOA)TOC of the extracted CD     Track |   Start  |  Length  | Start sector | End sector    ---------------------------------------------------------        1  | 00:00:00 | 04:51:10 |         0    |    21834        2  | 04:51:10 | 07:16:32 |     21835    |    54566        3  | 12:07:42 | 04:37:53 |     54567    |    75394        4  | 16:45:20 | 05:53:35 |     75395    |   101904        5  | 22:38:55 | 03:37:70 |    101905    |   118249        6  | 26:16:50 | 04:07:30 |    118250    |   136804        7  | 30:24:05 | 05:09:62 |    136805    |   160041        8  | 35:33:67 | 04:49:20 |    160042    |   181736        9  | 40:23:12 | 04:40:00 |    181737    |   202736AccurateRip Summary (DiscID: 00101259-00746897-720a8f09)    Track 01 : OK (v2, confidence 3/3)    Track 02 : OK (v2, confidence 3/3)    Track 03 : OK (v2, confidence 3/3)    Track 04 : OK (v2, confidence 3/3)    Track 05 : OK (v2, confidence 3/3)    Track 06 : OK (v2, confidence 3/3)    Track 07 : OK (v2, confidence 3/3)    Track 08 : OK (v2, confidence 3/3)    Track 09 : OK (v2, confidence 3/3)        ->All tracks accurately ripped.All Tracks    Album gain               : 0.32 dB    Peak                     : 0.822144    Statistics        Read error                           : 0        Jitter error (maybe fixed)           : 0        Retry sector count                   : 0        Damaged sector count                 : 0Track 01    Filename : /Volumes/Multimedia/XLD/日向敏文 - Sarah's Crime (1985) [FLAC]/01 - 日向敏文 - Sarah's Crime.flac    Pre-gap length : 00:02:00    Track gain               : 3.76 dB    Peak                     : 0.579315    CRC32 hash (test run)    : 54ED2F9D    CRC32 hash               : 54ED2F9D    CRC32 hash (skip zero)   : 5CE47355    AccurateRip v1 signature : DDBBA8FA    AccurateRip v2 signature : 1A05EA08        ->Accurately ripped (v2, confidence 3/3)    Statistics        Read error                           : 0        Jitter error (maybe fixed)           : 0        Retry sector count                   : 0        Damaged sector count                 : 0Track 02    Filename : /Volumes/Multimedia/XLD/日向敏文 - Sarah's Crime (1985) [FLAC]/02 - 日向敏文 - Midsummer Night.flac    Track gain               : 0.82 dB    Peak                     : 0.569092    CRC32 hash (test run)    : 26CF8D91    CRC32 hash               : 26CF8D91    CRC32 hash (skip zero)   : FA5E9A28    AccurateRip v1 signature : 887A4ECA    AccurateRip v2 signature : 47CEE502        ->Accurately ripped (v2, confidence 3/3)    Statistics        Read error                           : 0        Jitter error (maybe fixed)           : 0        Retry sector count                   : 0        Damaged sector count                 : 0Track 03    Filename : /Volumes/Multimedia/XLD/日向敏文 - Sarah's Crime (1985) [FLAC]/03 - 日向敏文 - Premonition.flac    Pre-gap length : 00:00:65    Track gain               : 1.20 dB    Peak                     : 0.664124    CRC32 hash (test run)    : 84FEACE6    CRC32 hash               : 84FEACE6    CRC32 hash (skip zero)   : 77CD1312    AccurateRip v1 signature : 16A85AAC    AccurateRip v2 signature : FF96AAD5        ->Accurately ripped (v2, confidence 3/3)    Statistics        Read error                           : 0        Jitter error (maybe fixed)           : 0        Retry sector count                   : 0        Damaged sector count                 : 0Track 04    Filename : /Volumes/Multimedia/XLD/日向敏文 - Sarah's Crime (1985) [FLAC]/04 - 日向敏文 - Boardwalk.flac    Track gain               : 0.83 dB    Peak                     : 0.723572    CRC32 hash (test run)    : 5573D6E1    CRC32 hash               : 5573D6E1    CRC32 hash (skip zero)   : F683BE91    AccurateRip v1 signature : 6873C3E6    AccurateRip v2 signature : A9A16334        ->Accurately ripped (v2, confidence 3/3)    Statistics        Read error                           : 0        Jitter error (maybe fixed)           : 0        Retry sector count                   : 0        Damaged sector count                 : 0Track 05    Filename : /Volumes/Multimedia/XLD/日向敏文 - Sarah's Crime (1985) [FLAC]/05 - 日向敏文 - Sarah (I.Adagio II.Rondeau III.Menuet).flac    Track gain               : 1.46 dB    Peak                     : 0.543762    CRC32 hash (test run)    : 37781760    CRC32 hash               : 37781760    CRC32 hash (skip zero)   : 0634F74C    AccurateRip v1 signature : 9739DB7C    AccurateRip v2 signature : C1864915        ->Accurately ripped (v2, confidence 3/3)    Statistics        Read error                           : 0        Jitter error (maybe fixed)           : 0        Retry sector count                   : 0        Damaged sector count                 : 0Track 06    Filename : /Volumes/Multimedia/XLD/日向敏文 - Sarah's Crime (1985) [FLAC]/06 - 日向敏文 - Pavement.flac    Pre-gap length : 00:01:05    Track gain               : -1.56 dB    Peak                     : 0.822144    CRC32 hash (test run)    : 91C05CF9    CRC32 hash               : 91C05CF9    CRC32 hash (skip zero)   : 32F1BD1D    AccurateRip v1 signature : 03DD3712    AccurateRip v2 signature : 21112B1A        ->Accurately ripped (v2, confidence 3/3)    Statistics        Read error                           : 0        Jitter error (maybe fixed)           : 0        Retry sector count                   : 0        Damaged sector count                 : 0Track 07    Filename : /Volumes/Multimedia/XLD/日向敏文 - Sarah's Crime (1985) [FLAC]/07 - 日向敏文 - Memories.flac    Pre-gap length : 00:00:55    Track gain               : -1.16 dB    Peak                     : 0.811707    CRC32 hash (test run)    : EC4FF57E    CRC32 hash               : EC4FF57E    CRC32 hash (skip zero)   : ACD37D89    AccurateRip v1 signature : 5147AAAD    AccurateRip v2 signature : C82361FE        ->Accurately ripped (v2, confidence 3/3)    Statistics        Read error                           : 0        Jitter error (maybe fixed)           : 0        Retry sector count                   : 0        Damaged sector count                 : 0Track 08    Filename : /Volumes/Multimedia/XLD/日向敏文 - Sarah's Crime (1985) [FLAC]/08 - 日向敏文 - Chaconne.flac    Track gain               : 5.71 dB    Peak                     : 0.366699    CRC32 hash (test run)    : 7590AE02    CRC32 hash               : 7590AE02    CRC32 hash (skip zero)   : 01689779    AccurateRip v1 signature : D5699856    AccurateRip v2 signature : 11C36163        ->Accurately ripped (v2, confidence 3/3)    Statistics        Read error                           : 0        Jitter error (maybe fixed)           : 0        Retry sector count                   : 0        Damaged sector count                 : 0Track 09    Filename : /Volumes/Multimedia/XLD/日向敏文 - Sarah's Crime (1985) [FLAC]/09 - 日向敏文 - Pentimento.flac    Pre-gap length : 00:01:22    Track gain               : 1.02 dB    Peak                     : 0.550293    CRC32 hash (test run)    : 6A0AFF33    CRC32 hash               : 6A0AFF33    CRC32 hash (skip zero)   : FDAB871D    AccurateRip v1 signature : 68739AF8    AccurateRip v2 signature : 0608B11B        ->Accurately ripped (v2, confidence 3/3)    Statistics        Read error                           : 0        Jitter error (maybe fixed)           : 0        Retry sector count                   : 0        Damaged sector count                 : 0No errors occurredEnd of status report-----BEGIN XLD SIGNATURE-----cq.bZPee1c22Ygu8NflQ_K6ssPyAdwTVJ35QJ1tFbT9Bwe28trkQraLtO2Acahb.iJMcoDUeOCBwkAvIZEDGf.tb3tWMrlIBZX8hKTW-----END XLD SIGNATURE-----

Содержание индексной карты (.CUE)

TITLE "Sarah's Crime"PERFORMER "Toshifumi Hinata"REM GENRE "Electronic"REM DATE "1985"REM DISCID 720A8F09REM REPLAYGAIN_ALBUM_GAIN 0.32 dBREM REPLAYGAIN_ALBUM_PEAK 0.822144FILE "01 - Sarah's Crime.flac" WAVE  TRACK 01 AUDIO    TITLE "Sarah's Crime"    REM REPLAYGAIN_TRACK_GAIN 3.76 dB    REM REPLAYGAIN_TRACK_PEAK 0.579315    INDEX 01 00:00:00FILE "02 - Midsummer Night.flac" WAVE  TRACK 02 AUDIO    TITLE "Midsummer Night"    REM REPLAYGAIN_TRACK_GAIN 0.82 dB    REM REPLAYGAIN_TRACK_PEAK 0.569092    INDEX 01 00:00:00  TRACK 03 AUDIO    TITLE "Premonition"    REM REPLAYGAIN_TRACK_GAIN 1.20 dB    REM REPLAYGAIN_TRACK_PEAK 0.664124    INDEX 00 07:15:42FILE "03 - Premonition.flac" WAVE    INDEX 01 00:00:00FILE "04 - Boardwalk.flac" WAVE  TRACK 04 AUDIO    TITLE "Boardwalk"    REM REPLAYGAIN_TRACK_GAIN 0.83 dB    REM REPLAYGAIN_TRACK_PEAK 0.723572    INDEX 01 00:00:00FILE "05 - Sarah- I. Adagio,II. Rondeau,III. Menuet.flac" WAVE  TRACK 05 AUDIO    TITLE "Sarah: I. Adagio/II. Rondeau/III. Menuet"    REM REPLAYGAIN_TRACK_GAIN 1.46 dB    REM REPLAYGAIN_TRACK_PEAK 0.543762    INDEX 01 00:00:00  TRACK 06 AUDIO    TITLE "Pavement"    REM REPLAYGAIN_TRACK_GAIN -1.56 dB    REM REPLAYGAIN_TRACK_PEAK 0.822144    INDEX 00 03:36:65FILE "06 - Pavement.flac" WAVE    INDEX 01 00:00:00  TRACK 07 AUDIO    TITLE "Memories"    REM REPLAYGAIN_TRACK_GAIN -1.16 dB    REM REPLAYGAIN_TRACK_PEAK 0.811707    INDEX 00 04:06:50FILE "07 - Memories.flac" WAVE    INDEX 01 00:00:00FILE "08 - Chaconne.flac" WAVE  TRACK 08 AUDIO    TITLE "Chaconne"    REM REPLAYGAIN_TRACK_GAIN 5.71 dB    REM REPLAYGAIN_TRACK_PEAK 0.366699    INDEX 01 00:00:00  TRACK 09 AUDIO    TITLE "Pentimento"    REM REPLAYGAIN_TRACK_GAIN 1.02 dB    REM REPLAYGAIN_TRACK_PEAK 0.550293    INDEX 00 04:47:73FILE "09 - Pentimento.flac" WAVE    INDEX 01 00:00:00

Отчет CUETools

[CUETools log; Date: 30.04.2019 12:58:00; Version: 2.1.6][CTDB TOCID: vpONdznHbwQu0zcjVIjQ9wZ2Yn0-] found.Track | CTDB Status  1   | (14/14) Accurately ripped  2   | (14/14) Accurately ripped  3   | (14/14) Accurately ripped  4   | (14/14) Accurately ripped  5   | (14/14) Accurately ripped  6   | (14/14) Accurately ripped  7   | (14/14) Accurately ripped  8   | (14/14) Accurately ripped  9   | (14/14) Accurately ripped[AccurateRip ID: 00101259-00746897-720a8f09] found.Track   [  CRC   |   V2   ] Status 01     [ddbba8fa|1a05ea08] (0+4/4) Accurately ripped 02     [887a4eca|47cee502] (0+4/4) Accurately ripped 03     [16a85aac|ff96aad5] (0+4/4) Accurately ripped 04     [6873c3e6|a9a16334] (0+4/4) Accurately ripped 05     [9739db7c|c1864915] (0+4/4) Accurately ripped 06     [03dd3712|21112b1a] (0+4/4) Accurately ripped 07     [5147aaad|c82361fe] (0+4/4) Accurately ripped 08     [d5699856|11c36163] (0+4/4) Accurately ripped 09     [68739af8|0608b11b] (0+4/4) Accurately rippedOffsetted by 336: 01     [8587e8b7] (0/4) No match (V2 was not tested) 02     [d17610e1] (0/4) No match (V2 was not tested) 03     [48a3d808] (0/4) No match (V2 was not tested) 04     [a3788588] (0/4) No match (V2 was not tested) 05     [2121e74c] (0/4) No match (V2 was not tested) 06     [666e63b0] (0/4) No match (V2 was not tested) 07     [cfc4b302] (0/4) No match (V2 was not tested) 08     [b3956d17] (0/4) No match (V2 was not tested) 09     [9b712ea4] (0/4) No match (V2 was not tested)Track Peak [ CRC32  ] [W/O NULL] --   82,2 [5241AD4B] [E700BB24] 01   57,9 [54ED2F9D] [5CE47355] 02   56,9 [26CF8D91] [FA5E9A28] 03   66,4 [84FEACE6] [77CD1312] 04   72,3 [5573D6E1] [F683BE91] 05   54,3 [37781760] [0634F74C] 06   82,2 [91C05CF9] [32F1BD1D] 07   81,1 [EC4FF57E] [ACD37D89] 08   36,6 [7590AE02] [01689779] 09   55,0 [6A0AFF33] [FDAB871D]

Об альбоме (сборнике)

My apologies to David Lynch fans, but when I imagine what the music of Twin Peaks should be, I imagine something more along this profound piece of music from Toshifumi Hinata than the real life, final product. I say this, because Toshifumi Hinata’s Sarah’s Crime captures a fully idealized musical vision of an in-between feeling. It’s of that feeling when reality starts to graduate into the realms of the surreal and when dreams blend into the living.
One can only imagine that Toshifumi Hinata used memories of times spent studying music in Nowheresville, America — first in Ashland, Wisconsin and then at the University of Minnesota in Duluth — as focal points to convey some of that inexplicable miasma that extra-urban America is. When he returned back to Japan, it’s that undeniable American experience that seem to permeate in the nocturnal music he was crafting for his debut album.
Taking cues from the languid feeling of classic French impressionist music, Toshifumi sculpted Sarah’s Crime as an album full of modern piano-led nocturnes that could fold in orchestral instrumentation and synthetic key beds into a seamless mix of woozy arrangements. The goal was music for half-forgotten musical touch points, with an atmosphere that could best described as illusory.
If ever there was music made for those wee hours before sunrise, when gray bleeds into blue light, it’s in this album. Sharing as much in common with the sounds of Satie and Debussy, as the in-between music of Cluster, Don Cherry, and Mark Isham, it’s no wonder Toshifumi would later release countless timeless Japanese drama soundtracks that spoke of the quiet moments in modern life. He was merely creating visual music for films you could have sworn really existed. Of course, no film has yet captured what he created here. In the end, how can one be nostalgic for comforts found in a dream?
-- Diego Olivas

To download the content you need:
1. Download and install torrent client [for Windows] or for mobile system
2. Click on [Download]
Attention.
If the test YOU are NOT a ROBOT - does not work, then You are using an outdated browser.
Install the current browser and click on [Download]
Security: torrent client is allowed by Kaspersky.

[asmlocator.ru].t636737.torrent 
Torrent: Registered [ 2019-05-14 17:55 ] · BA1192497E52F1528AEF8F6F87285B951FFF64FF

Download .torrent

Download

18 KB

Status: checked
Completed: 2 times
Size: 216 MB
terms.php
[Profile] [PM]
Display posts:    
Reply to topic

Current time is: 23-Aug 19:14

All times are UTC ± 0



You cannot post new topics in this forum
You cannot reply to topics in this forum
You cannot edit your posts in this forum
You cannot delete your posts in this forum
You cannot vote in polls in this forum
You cannot attach files in this forum
You can download files in this forum