Моя детка бросила меня / My baby left me (Милорад Крстич / Milorad Krstić) [1995, Венгрия, авторская анимация, WEBRip]

Reply to topic
DL-List and Torrent activity
Size:  67 MB   |    Registered:  3 months 9 days   |    Completed:  0 times

Seeder not seen: 49 minutes

 
   
 
 
Author Message

star21 ®

Gender: Female

Longevity: 3 years 9 months

Posts: 551989

Location: Екатеринбург

Post 14-May-2019 04:55

[Quote]

Моя детка бросила меня / My baby left meСтрана: Венгрия
Жанр: авторская анимация
Год выпуска: 1995
Продолжительность: 00:08:19
Перевод: не требуется
Субтитры: нетРежиссёр: Милорад Крстич / Milorad KrstićКомпозитор: Андраш Вахорн / András WahornОписание: Сексуально-сюрреалистическая анимационная абстракция.Доп. информация: Приз за лучший дебют - Фестиваль анимации "Annecy" (1995)Качество видео: WEBRip
Формат видео: AVIВидео: 993 kbps, 640х416 (3:2), 25.000 fps, MPEG-4 Visual (Simple@L4)
Аудио: 128 kbps, 48.0 kHz, 2 channels, MPEG Audio (MP3)

MediaInfo

GeneralComplete name                            : My baby left me (1995).aviFormat                                   : AVIFormat/Info                              : Audio Video InterleaveFile size                                : 67.5 MiBDuration                                 : 8mn 19sOverall bit rate                         : 1 134 KbpsWriting application                      : Lavf58.17.101Writing library                          : VirtualDub build 35491/releaseVideoID                                       : 0Format                                   : MPEG-4 VisualFormat profile                           : Advanced Simple@L4Format settings, BVOP                    : 2Format settings, QPel                    : NoFormat settings, GMC                     : No warppointsFormat settings, Matrix                  : Default (H.263)Codec ID                                 : XVIDCodec ID/Hint                            : XviDDuration                                 : 8mn 19sBit rate                                 : 993 KbpsWidth                                    : 640 pixelsHeight                                   : 416 pixelsDisplay aspect ratio                     : 3:2Frame rate                               : 25.000 fpsColor space                              : YUVChroma subsampling                       : 4:2:0Bit depth                                : 8 bitsScan type                                : ProgressiveCompression mode                         : LossyBits/(Pixel*Frame)                       : 0.149Stream size                              : 59.1 MiB (88%)Writing library                          : XviD 73AudioID                                       : 1Format                                   : MPEG AudioFormat version                           : Version 1Format profile                           : Layer 3Mode                                     : Joint stereoMode extension                           : MS StereoCodec ID                                 : 55Codec ID/Hint                            : MP3Duration                                 : 8mn 19sBit rate mode                            : ConstantBit rate                                 : 128 KbpsChannel(s)                               : 2 channelsSampling rate                            : 48.0 KHzCompression mode                         : LossyStream size                              : 7.62 MiB (11%)Alignment                                : Aligned on interleavesInterleave, duration                     : 24 ms (0.60 video frame)

Скриншот c названием фильма

Скриншоты


To download the content you need:
1. Download and install torrent client [for Windows] or for mobile system
2. Click on [Download]
Attention.
If the test YOU are NOT a ROBOT - does not work, then You are using an outdated browser.
Install the current browser and click on [Download]
Security: torrent client is allowed by Kaspersky.

[asmlocator.ru].t636427.torrent 
Torrent: Registered [ 2019-05-14 04:55 ] · 077885BC13ABA319129936D1DE6A76B94E8B9BD8

Download .torrent

Download

11 KB

Status: checked
Completed: 0 times
Size: 67 MB
terms.php
[Profile] [PM]
Display posts:    
Reply to topic

Current time is: 23-Aug 19:09

All times are UTC ± 0



You cannot post new topics in this forum
You cannot reply to topics in this forum
You cannot edit your posts in this forum
You cannot delete your posts in this forum
You cannot vote in polls in this forum
You cannot attach files in this forum
You can download files in this forum