Моя детка бросила меня / My baby left me (Милорад Крстич / Milorad Krstić) [1995, Венгрия, авторская анимация, WEBRip]

Ответить на тему
Статистика раздачи
Размер:  67 MB   |    Зарегистрирован:  6 месяцев 30 дней   |    Скачан:  0 раз

Полного источника не было: 1 месяц 24 дня

 
   
 
 
Автор Сообщение

star21 ®

Пол: Женский

Стаж: 4 года 1 месяц

Сообщений: 551946

Откуда: Екатеринбург

Создавать темы 14-Май-2019 04:55

[Цитировать]

Моя детка бросила меня / My baby left meСтрана: Венгрия
Жанр: авторская анимация
Год выпуска: 1995
Продолжительность: 00:08:19
Перевод: не требуется
Субтитры: нетРежиссёр: Милорад Крстич / Milorad KrstićКомпозитор: Андраш Вахорн / András WahornОписание: Сексуально-сюрреалистическая анимационная абстракция.Доп. информация: Приз за лучший дебют - Фестиваль анимации "Annecy" (1995)Качество видео: WEBRip
Формат видео: AVIВидео: 993 kbps, 640х416 (3:2), 25.000 fps, MPEG-4 Visual (Simple@L4)
Аудио: 128 kbps, 48.0 kHz, 2 channels, MPEG Audio (MP3)

MediaInfo

GeneralComplete name                            : My baby left me (1995).aviFormat                                   : AVIFormat/Info                              : Audio Video InterleaveFile size                                : 67.5 MiBDuration                                 : 8mn 19sOverall bit rate                         : 1 134 KbpsWriting application                      : Lavf58.17.101Writing library                          : VirtualDub build 35491/releaseVideoID                                       : 0Format                                   : MPEG-4 VisualFormat profile                           : Advanced Simple@L4Format settings, BVOP                    : 2Format settings, QPel                    : NoFormat settings, GMC                     : No warppointsFormat settings, Matrix                  : Default (H.263)Codec ID                                 : XVIDCodec ID/Hint                            : XviDDuration                                 : 8mn 19sBit rate                                 : 993 KbpsWidth                                    : 640 pixelsHeight                                   : 416 pixelsDisplay aspect ratio                     : 3:2Frame rate                               : 25.000 fpsColor space                              : YUVChroma subsampling                       : 4:2:0Bit depth                                : 8 bitsScan type                                : ProgressiveCompression mode                         : LossyBits/(Pixel*Frame)                       : 0.149Stream size                              : 59.1 MiB (88%)Writing library                          : XviD 73AudioID                                       : 1Format                                   : MPEG AudioFormat version                           : Version 1Format profile                           : Layer 3Mode                                     : Joint stereoMode extension                           : MS StereoCodec ID                                 : 55Codec ID/Hint                            : MP3Duration                                 : 8mn 19sBit rate mode                            : ConstantBit rate                                 : 128 KbpsChannel(s)                               : 2 channelsSampling rate                            : 48.0 KHzCompression mode                         : LossyStream size                              : 7.62 MiB (11%)Alignment                                : Aligned on interleavesInterleave, duration                     : 24 ms (0.60 video frame)

Скриншот c названием фильма

Скриншоты

Чтобы скачать этот контент, Вам необходимо:
1. Скачать и установить торрент-клиент [клик для Windows], (для мобильного найдите на Play Маркет).
2. Кликнуть по [Скачать]


Внимание.
Если проверка ВЫ НЕ РОБОТ - не работает, значит Вы используете устаревший браузер.
Установите актуальный браузер и повторно кликните по [Скачать]
Безопасность: торрент-клиент разрешён АВ Касперского.

[asmlocator.ru].t636427.torrent 
Торрент: Зарегистрирован [ 2019-05-14 04:55 ] · 077885BC13ABA319129936D1DE6A76B94E8B9BD8

Скачать .torrent

Скачать

11 KB

Статус: проверено
Скачан: 0 раз
Размер: 67 MB
terms.php
[Профиль] [ЛС]
Показать сообщения:    
Ответить на тему

Текущее время: 13-Дек 07:09

Часовой пояс: UTC ± 0



Вы не можете начинать темы
Вы не можете отвечать на сообщения
Вы не можете редактировать свои сообщения
Вы не можете удалять свои сообщения
Вы не можете голосовать в опросах
Вы не можете прикреплять файлы к сообщениям
Вы можете скачивать файлы
Верим фактам, а не вранью Путина! Факт, что Правительство ведёт Россию к истреблению.
Так как численность населения падает, даже не смотря на приток эмигрантов!
Русская нация вымирает и вырождается, смешиваясь с эмигрантами!
Факт, что военных и граждан предприятий заставляют голосовать за партию Единая Россия и Путина
ПОД СТРАХОМ УВОЛЬНЕНИЯ!
Нам не нужно Правительство, блокирующее личную жизнь, интернет, нарушающее сохранность данных.
Все эти действия финансируются за счёт народа!