(Pop) [CD] Madonna - Open Your Heart (Single) - 1986, FLAC (tracks+.cue), lossless

Reply to topic
DL-List and Torrent activity
Size:  132 MB   |    Registered:  3 months 10 days   |    Completed:  1 time

Seeder not seen: 53 minutes

 
   
 
 
Author Message

star21 ®

Gender: Female

Longevity: 3 years 9 months

Posts: 551989

Location: Екатеринбург

Post 13-May-2019 18:00

[Quote]

Madonna - Open Your Heart (Single) Жанр: Pop
Носитель: CD
Страна-производитель диска (релиза): EU
Год издания: 1986
Издатель (лейбл): Sire Records
Номер по каталогу: 7599-20597-2
Страна исполнителя (группы): USA
Аудиокодек: FLAC (*.flac)
Тип рипа: tracks+.cue
Битрейт аудио: lossless
Продолжительность: 00:21:57
Источник: waffles.ch
Наличие сканов в содержимом раздачи: нет
Треклист:
01. Open Your Heart [Extended Version] (10:37)
02. Open Your Heart [Dub] (6:43)
03. White Heat [LP Version] (4:37)

Лог создания рипа

Exact Audio Copy V0.99 prebeta 5 from 4. May 2009EAC extraction logfile from 29. July 2012, 15:58Madonna / Open Your Heart [7599-20597-2]Used drive  : Optiarc DVD RW AD-7717H   Adapter: 0  ID: 1Read mode               : SecureUtilize accurate stream : YesDefeat audio cache      : YesMake use of C2 pointers : NoRead offset correction                      : 48Overread into Lead-In and Lead-Out          : NoFill up missing offset samples with silence : YesDelete leading and trailing silent blocks   : NoNull samples used in CRC calculations       : YesUsed interface                              : Native Win32 interface for Win NT & 2000Gap handling                                : Appended to previous trackUsed output format              : User Defined EncoderSelected bitrate                : 768 kBit/sQuality                         : HighAdd ID3 tag                     : NoCommand line compressor         : C:\Program Files (x86)\Exact Audio Copy\FLAC\FLAC.EXEAdditional command line options : -V -8 -T "artist=%a" -T "title=%t" -T "album=%g" -T "date=%y" -T "tracknumber=%n" -T "genre=%m" %sTOC of the extracted CD     Track |   Start  |  Length  | Start sector | End sector    ---------------------------------------------------------        1  |  0:00.00 | 10:37.12 |         0    |    47786        2  | 10:37.12 |  6:42.55 |     47787    |    77991        3  | 17:19.67 |  4:36.55 |     77992    |    98746Track  1     Filename C:\Users\Matthieu\Documents\CD rips\01 Open Your Heart [Extended Version].wav     Pre-gap length  0:00:02.00     Peak level 93.0 %     Track quality 100.0 %     Test CRC 69B67053     Copy CRC 69B67053     Accurately ripped (confidence 2)  [C65CEBEC]     Copy OKTrack  2     Filename C:\Users\Matthieu\Documents\CD rips\02 Open Your Heart [Dub].wav     Pre-gap length  0:00:02.62     Peak level 80.8 %     Track quality 100.0 %     Test CRC 6BB164F9     Copy CRC 6BB164F9     Accurately ripped (confidence 2)  [869BA697]     Copy OKTrack  3     Filename C:\Users\Matthieu\Documents\CD rips\03 White Heat [LP Version].wav     Pre-gap length  0:00:02.62     Peak level 89.0 %     Track quality 100.0 %     Test CRC 1FC68407     Copy CRC 1FC68407     Cannot be verified as accurate (confidence 6)  [4C327A2E], AccurateRip returned [D920E647]     Copy OK 2 track(s) accurately ripped 1 track(s) could not be verified as accurateSome tracks could not be verified as accurateNo errors occurredEnd of status report

Содержание индексной карты (.CUE)

REM GENRE PopREM DATE 1986REM DISCID 1A052403REM COMMENT "ExactAudioCopy v0.99pb5"FILE "01 Open Your Heart [Extended Version].wav" WAVE  TRACK 01 AUDIO    INDEX 01 00:00:00  TRACK 02 AUDIO    INDEX 00 10:34:40FILE "02 Open Your Heart [Dub].wav" WAVE    INDEX 01 00:00:00  TRACK 03 AUDIO    INDEX 00 06:40:08FILE "03 White Heat [LP Version].wav" WAVE    INDEX 01 00:00:00

Лог проверки качества

-----------------------DON'T MODIFY THIS FILE-----------------------PERFORMER: auCDtect Task Manager, ver. 1.6.0 RC1 build 1.6.0.1Copyright (c) 2008-2010 y-soft. All rights reservedhttp://y-soft.orgANALYZER: auCDtect: CD records authenticity detector, version 0.8.2Copyright (c) 2004 Oleg Berngardt. All rights reserved.Copyright (c) 2004 Alexander Djourik. All rights reserved.FILE: 03 White Heat [LP Version].flac  Size: 29260456 Hash: AB58BA357F650657DFC1ADC8E5E24A02 Accuracy: -m0  Conclusion: CDDA 100%  Signature: 078AADC4AC368FE1FD2B62DF21087D28DCB593C3FILE: 02 Open Your Heart [Dub].flac  Size: 40752829 Hash: 5C61FF49B6555B37675B9C05A4DE4D15 Accuracy: -m0  Conclusion: CDDA 100%  Signature: 2100E6DB6C3FBC871180AF98D9A8607AFF047C59FILE: 01 Open Your Heart [Extended Version].flac  Size: 68275083 Hash: 0A3AA1E0104A0EF7A9C05D6E94605245 Accuracy: -m0  Conclusion: CDDA 100%  Signature: D0660BC5772B8B2F5C6687FC3173FDF454F94205

Скриншот спектра частот


To download the content you need:
1. Download and install torrent client [for Windows] or for mobile system
2. Click on [Download]
Attention.
If the test YOU are NOT a ROBOT - does not work, then You are using an outdated browser.
Install the current browser and click on [Download]
Security: torrent client is allowed by Kaspersky.

[asmlocator.ru].t636200.torrent 
Torrent: Registered [ 2019-05-13 18:00 ] · 33088B8CDA4F032AE50B88E7CCF7D5E97E67C7AA

Download .torrent

Download

11 KB

Status: checked
Completed: 1 times
Size: 132 MB
terms.php
[Profile] [PM]
Display posts:    
Reply to topic

Current time is: 23-Aug 19:13

All times are UTC ± 0



You cannot post new topics in this forum
You cannot reply to topics in this forum
You cannot edit your posts in this forum
You cannot delete your posts in this forum
You cannot vote in polls in this forum
You cannot attach files in this forum
You can download files in this forum