[TR24][OF] Эмгэ - Цинк - 2019 (indie, synthwave, space-punk)

Reply to topic
DL-List and Torrent activity
Size:  899 MB   |    Registered:  3 months 10 days   |    Completed:  0 times

Seeder not seen: Never

 
   
 
 
Author Message

star21 ®

Gender: Female

Longevity: 3 years 9 months

Posts: 551989

Location: Екатеринбург

Post 13-May-2019 09:20

[Quote]

Эмгэ / Цинк Формат записи/Источник записи: [TR24][OF]
Наличие водяных знаков: Нет
Год издания/переиздания диска: 2019
Жанр: indie, synthwave, space-punk
Издатель (лейбл): STUB records
Продолжительность: 37:54
Источник: stubrecords.bandcamp.com
Наличие сканов: обложкаТреклист:1. Хичкок 04:26
2. Разум 04:04
3. Играю 04:17
4. Гладко 03:39
5. Цинк 04:45
6. Завод 04:20
7. Вулкан 03:53
8. Коротко 04:34
9. Тюбик 03:56Контейнер: FLAC (*.flac)
Тип рипа: tracksРазрядность: 24/96
Формат: PCM
Количество каналов: 2.0

Замер динамического диапазона (DR)

foobar2000 1.4.1 / Замер динамического диапазона (DR) 1.1.1Дата отчёта:  2019-04-09 02:24:29--------------------------------------------------------------------------------Анализ:   Эмгэ / Цинк--------------------------------------------------------------------------------DR         Пики         RMS           Продолжительность трека--------------------------------------------------------------------------------DR10      -0.31 дБ   -10.99 дБ      4:26 01-ХичкокDR7       -0.31 дБ    -7.82 дБ      4:04 02-РазумDR8       -0.31 дБ    -9.21 дБ      4:17 03-ИграюDR6       -0.31 дБ    -7.66 дБ      3:39 04-ГладкоDR7       -0.31 дБ    -8.41 дБ      4:45 05-ЦинкDR7       -0.31 дБ    -7.89 дБ      4:20 06-ЗаводDR6       -0.31 дБ    -7.35 дБ      3:53 07-ВулканDR7       -0.31 дБ    -7.96 дБ      4:34 08-КороткоDR7       -0.31 дБ    -8.37 дБ      3:56 09-Тюбик--------------------------------------------------------------------------------Количество треков: 9Реальные значения DR: DR7Частота:   96000 ГцКаналов:   2Разрядность:   24Битрейт:   3268 кбит/сКодек:   FLAC================================================================================

To download the content you need:
1. Download and install torrent client [for Windows] or for mobile system
2. Click on [Download]
Attention.
If the test YOU are NOT a ROBOT - does not work, then You are using an outdated browser.
Install the current browser and click on [Download]
Security: torrent client is allowed by Kaspersky.

[asmlocator.ru].t635990.torrent 
Torrent: Registered [ 2019-05-13 09:20 ] · CE796BC734AFFD0A1102B0305389A8ABBB0E0831

Download .torrent

Download

19 KB

Status: checked
Completed: 0 times
Size: 899 MB
terms.php
[Profile] [PM]
Display posts:    
Reply to topic

Current time is: 23-Aug 19:11

All times are UTC ± 0



You cannot post new topics in this forum
You cannot reply to topics in this forum
You cannot edit your posts in this forum
You cannot delete your posts in this forum
You cannot vote in polls in this forum
You cannot attach files in this forum
You can download files in this forum