Noise MC - XV (live) [2018, Rock, Hip-hop, HDTV, 1080p]

Reply to topic
DL-List and Torrent activity
Size:  5.84 GB   |    Registered:  11 days   |    Completed:  0 times

Seeder not seen: Never

 
   
 
 
Author Message

star21 ®

Gender: Female

Longevity: 3 years 6 months

Posts: 552209

Location: Екатеринбург

Post 12-May-2019 00:45

[Quote]

Noize MC - XV (live) Жанр: Rock, Hip-hop
Продолжительность: 2:16:18
Год выпуска: 201800:01:11 За закрытой дверью
00:05:03 Make Some Noize
00:09:05 Песня Для Радио
00:13:11 Люди с автоматами (feat. монеточка)
00:17:05 Чайлдфри (feat. монеточка)
00:22:00 Коррозия хип-хопа
00:29:19 Бассейн
00:34:46 Вселенная бесконечна?
00:38:21 Следы на спине
00:41:50 На Марсе классно!
00:46:52 Иордан
00:51:50 Жвачка
00:56:13 В темноте
01:00:57 Yes Future!
01:04:20 Устрой дестрой
01:18:45 Танцi feat Иван Дорн
01:23:00 Голос & Cтруны
01:27:42 С Нами feat. Leila
01:31:26 Без нас feat. Leila
01:38:40 Питерские крыши
01:43:23 Моё море
01:46:32 Грабли
01:51:41 Выдыхай
01:55:36 Ругань из-за стены
02:00:02 Антенны
02:03:52 Из Окна
02:09:10 МарафонГруппа «Noize MC»
Гитара, вокал –Иван Алексеев
Бас-гитара – Александр Кислинский
DJ, beatbox, перкуссия – DJ Stufford
Ударные – Владимир Зиновьев
Звукорежиссер – Роман Кравченко
Техник – Андрей Шинкевич
Тур-менеджер – Валерий ЮнусовСпециальные гости — Иван Дорн, Монеточка, LeilaПродюсер – Елена Савельева
Менеджмент – Дмитрий Пайкин, Елизавета Коровина
Стиль, художественное решение — Леонид Алексеев
Технический директор – Давид Казарян
Постановка света - Иван Виноградов, Илья Абраменко
Дизайн — Михаил Руль
Мерчендайзинг — Алекс МельцовПартнеры - «Line up group»:
Никита Новицкий
Тимур Фейсханов
Кристина Донварь
Карина Фазуллина
Елизавета Старостина
Алексей Кузовлев
Вася Отменников
Костя ЗикратыйВидеосъемка KROK FILMS
Георгий Бизюк – режиссер
Евгений Соломонов – оператор-постановщик, монтажер
Роман Жигалов – оператор
Карина Смолякова – оператор
Роман Адасько – оператор
Алексей Максимов - оператор
Александр Стриевич – оператор
Евгений Пилипенко – оператор
Артем Мельников – оператор
Константин Серегин – оператор
Александр Нурдинов – оператор
Андрей Бизюк – оператор
Илья Копытов – операторВидео на экране — SUPERVISUALS TEAM
Александр Рябцун / VJ Dzhezus
Рустам Юсупов
Наталья Мухаметдинова
CG Artists
Глеб Репин
Рустам Юсупов
Артем АндросовТехническая поддержка
Звук - Агенство «Линия Звука»
Экраны - StarScreens
Свет -Realtime Production, Laserkinetics, Light Logics
Сцена - DB Power, Трансформ-ТФ
Спецэффекты - PresetFX
Подвесы - RRC-RIGGING
Кулисы - Компания Одень Сцену
Кабуки - Stage EffectsФильм снят на технику Sony
Александр Красовицкий
Иван Сивушкин
Благодарим за помощь в организации съемокБлагодарим за помощь компанию ООО «Юниверсал Мьюзик»
Дмитрий Коннов
Максим Власов
Сергей Красненко
Екатерина КолмаковаБольшое спасибо моей музе и жене Ане Алексеевой.Описание: Концерт группы "Noize MC" в московском Дворце спорта "Мегаспорт" посвященный 15-летию группы.Доп. информация: На протяжении 2 часов Иван Алексеев поет старые и новые хиты, несколько песен с Монеточкой и Иваном Дорном и песни из хип-хоперы "Орфей и Эвридика.Качество: HDTV
Разрешение видео/развертка: 1080p
Контейнер: MP4
Видео кодек: H.264
Аудио кодек: AAC
Видео: H.264, 1920x1080, 6130 Kb/s, 29 fps
Аудио: AAC, 192 Kb/s, 44 kHz, 2 channel (stereo)

Отчёт MediaInfo / BDInfo

Полное имя                               : G:\Video\Musik\No15e MS XV.mp4Формат                                   : MPEG-4Профиль формата                          : Base MediaИдентификатор кодека                     : isom (isom/iso2/avc1/mp41)Размер файла                             : 5,84 ГбайтПродолжительность                        : 2 ч. 16 м.Общий поток                              : 6130 Кбит/секПрограмма кодирования                    : Lavf57.41.100Идентификатор                            : 1Формат                                   : AVCФормат/Информация                        : Advanced Video CodecПрофиль формата                          : Baseline@L4Настройки формата                        : 1 Ref FramesПараметр CABAC формата                   : НетПараметр RefFrames формата               : 1 кадрИдентификатор кодека                     : avc1Идентификатор кодека/Информация          : Advanced Video CodingПродолжительность                        : 2 ч. 16 м.Битрейт                                  : 5982 Кбит/секШирина                                   : 1920 пикселейВысота                                   : 1080 пикселейСоотношение сторон                       : 16:9Режим частоты кадров                     : ПостоянныйЧастота кадров                           : 29,970 (29970/1000) кадров/секЦветовое пространство                    : YUVСубдискретизация насыщенности            : 4:2:0Битовая глубина                          : 8 битТип развёртки                            : ПрогрессивнаяБит/(Пиксели*Кадры)                      : 0.096Размер потока                            : 5,64 Гбайт (97%)Библиотека кодирования                   : x264 core 148 r2643 5c65704Настройки программы                      : cabac=0 / ref=1 / deblock=1:0:0 / analyse=0x1:0x111 / me=hex / subme=7 / psy=1 / psy_rd=1.00:0.00 / mixed_ref=0 / me_range=16 / chroma_me=1 / trellis=1 / 8x8dct=0 / cqm=0 / deadzone=21,11 / fast_pskip=1 / chroma_qp_offset=-2 / threads=6 / lookahead_threads=1 / sliced_threads=0 / nr=0 / decimate=1 / interlaced=0 / bluray_compat=0 / constrained_intra=0 / bframes=0 / weightp=0 / keyint=250 / keyint_min=25 / scenecut=40 / intra_refresh=0 / rc_lookahead=40 / rc=abr / mbtree=1 / bitrate=5982 / ratetol=1.0 / qcomp=0.60 / qpmin=10 / qpmax=51 / qpstep=4 / ip_ratio=1.41 / aq=1:1.00Codec configuration box                  : avcCИдентификатор                            : 2Формат                                   : AAC LCФормат/Информация                        : Advanced Audio Codec Low ComplexityИдентификатор кодека                     : mp4a-40-2Продолжительность                        : 2 ч. 16 м.Duration_LastFrame                       : -5 мс.Вид битрейта                             : ПостоянныйБитрейт                                  : 192 Кбит/секКаналы                                   : 2 каналаChannel layout                           : L RЧастота                                  : 44,1 КГцЧастота кадров                           : 43,066 кадра/сек (1024 SPF)Метод сжатия                             : С потерямиРазмер потока                            : 189 Мбайт (3%)Default                                  : ДаAlternateGroup/String                    : 1

Скриншоты














Сообщения из этой темы [8 шт.] были выделены в отдельную тему Выделено из: Noise MC - XV (live) [2018, Rock, Hip-hop, HDTV, 1080p] [5719458]anbelk27

To download the content you need:
1. Download and install torrent client [for Windows] or for mobile system
2. Click on [Download]
Attention.
If the test YOU are NOT a ROBOT - does not work, then You are using an outdated browser.
Install the current browser and click on [Download]
Security: torrent client is allowed by Kaspersky.

[asmlocator.ru].t635253.torrent 
Torrent: Registered [ 2019-05-12 00:45 ] · 2DA234F4E9C753DCC9632A3B1D3E26573285D114

Download .torrent

Download

30 KB

Status: checked
Completed: 0 times
Size: 5.84 GB
terms.php
[Profile] [PM]
Display posts:    
Reply to topic

Current time is: 23-May 02:06

All times are UTC ± 0



You cannot post new topics in this forum
You cannot reply to topics in this forum
You cannot edit your posts in this forum
You cannot delete your posts in this forum
You cannot vote in polls in this forum
You cannot attach files in this forum
You can download files in this forum