(Electronic, Ambient, New Age) [CD] VA - Planets Of The Universe Volume One - 1996, FLAC (image+.cue), lossless

Reply to topic
DL-List and Torrent activity
Size:  738 MB   |    Registered:  3 months 11 days   |    Completed:  0 times

Seeder not seen: 54 minutes

 
   
 
 
Author Message

star21 ®

Gender: Female

Longevity: 3 years 9 months

Posts: 551989

Location: Екатеринбург

Post 11-May-2019 22:35

[Quote]

Planets Of The Universe Volume One Жанр: Electronic, Ambient, New Age
Носитель: CD
Страна-производитель диска (релиза): Germany
Год издания: 1996
Издатель (лейбл): Pikosso Records
Номер по каталогу: 874 0003
Аудиокодек: FLAC (*.flac)
Тип рипа: image+.cue
Продолжительность: 00:50:14 + 01:13:39
Источник: собственный рип
Наличие сканов в содержимом раздачи: нет
Треклист:

скрытый текст

1-1 –Asha (4) Fiery Moon 5:11
1-2 –Mind Over Matter (2) Shangri-La 5:27
1-3 –Eroc Nachtfahrt 4:27
1-4 –Paul Brandenberg Lanzarote 3:59
1-5 –TK* Midnight Rainbow 6:28
1-6 –Bernward Koch Still Magic 3:23
1-7 –John Dyson Eagle 4:47
1-8 –Dancing Fantasy Voodoo Jamming 6:29
1-9 –Terry Oldfield De Profundis 6:16
1-10 –Waveshape (2) Chromosphäre 4:14
1-11 –Win Kowa Relax 3:55
1-12 –Rüdiger Gleisberg Erotica Exotica 4:09
1-13 –Tangerine Dream Stratosfear 1994 5:08
1-14 –Axel Wilhelm Cubic Atmosphere 5:02
1-15 –John Kerr The Power And The Glory 4:05
2-1 –Carsten Schnell Morning Cafe 3:47
2-2 –Klaus Schulze Conquest Of Paradise 4:47
2-3 –Michael Garrison Departure 3:50
2-4 –Wolfgang Bock River Rye 3:26
2-5 –Megabyte (3) Powerplay 8:40
2-6 –Cusco North Easter 4:12
2-7 –Optical Image High Grounds 4:32
2-8 –Blonker Summerlightning 3:34
2-9 –Software Chloé 4:46
2-10 –P.O.N.D.* Paradise Island 3:09
2-11 –Joerg Strawe Sequenzen Ohne Grenzen 5:10

Лог создания рипа

Sun Side

скрытый текст

Exact Audio Copy V1.1 from 23. June 2015EAC extraction logfile from 17. April 2019, 18:08Various Artists / Planets Of The Universe - Volume One  (Sun Side) (1996)Used drive  : PIONEER BD-RW   BDR-208M   Adapter: 1  ID: 0Read mode               : SecureUtilize accurate stream : YesDefeat audio cache      : YesMake use of C2 pointers : NoRead offset correction                      : 667Overread into Lead-In and Lead-Out          : NoFill up missing offset samples with silence : YesDelete leading and trailing silent blocks   : NoNull samples used in CRC calculations       : YesUsed interface                              : Native Win32 interface for Win NT & 2000Used output format              : User Defined EncoderSelected bitrate                : 1024 kBit/sQuality                         : HighAdd ID3 tag                     : NoCommand line compressor         : C:\Program Files (x86)\Exact Audio Copy\Flac\flac.exeAdditional command line options : -V -8 -T "Date=%year%" -T "Genre=%genre%" %source%TOC of the extracted CD     Track |   Start  |  Length  | Start sector | End sector    ---------------------------------------------------------        1  |  0:00.00 |  3:49.10 |         0    |    17184        2  |  3:49.10 |  4:49.32 |     17185    |    38891        3  |  8:38.42 |  3:52.68 |     38892    |    56359        4  | 12:31.35 |  3:28.67 |     56360    |    72026        5  | 16:00.27 |  8:39.63 |     72027    |   111014        6  | 24:40.15 |  4:13.12 |    111015    |   130001        7  | 28:53.27 |  4:35.30 |    130002    |   150656        8  | 33:28.57 |  3:34.28 |    150657    |   166734        9  | 37:03.10 |  4:49.35 |    166735    |   188444       10  | 41:52.45 |  3:10.00 |    188445    |   202694       11  | 45:02.45 |  5:11.05 |    202695    |   226024Range status and errorsSelected range     Filename C:\Users\jean-mini\Music\Various Artists - Planets Of The Universe - Volume One  (Sun Side) (1996).wav     Peak level 98.0 %     Extraction speed 6.0 X     Range quality 99.9 %     Test CRC EE4F71D0     Copy CRC EE4F71D0     Copy OKNo errors occurredAccurateRip summaryTrack  1  accurately ripped (confidence 3)  [092BFB31]  (AR v1)Track  2  accurately ripped (confidence 3)  [CB1B1932]  (AR v1)Track  3  accurately ripped (confidence 3)  [EDCAEAE8]  (AR v1)Track  4  accurately ripped (confidence 3)  [398D4904]  (AR v1)Track  5  accurately ripped (confidence 3)  [5E37CDF3]  (AR v1)Track  6  accurately ripped (confidence 3)  [EBBFA7B1]  (AR v1)Track  7  accurately ripped (confidence 3)  [A3ADD907]  (AR v1)Track  8  accurately ripped (confidence 3)  [F419EA12]  (AR v1)Track  9  accurately ripped (confidence 3)  [7ED9AB1E]  (AR v1)Track 10  accurately ripped (confidence 2)  [816074A1]  (AR v2)Track 11  accurately ripped (confidence 3)  [7337E01E]  (AR v1)All tracks accurately rippedEnd of status report---- CUETools DB Plugin V2.1.6[CTDB TOCID: jRR476xIeh.2UI9BHYY3FzCHr9Q-] foundSubmit result: already submittedTrack | CTDB Status  1   | (6/6) Accurately ripped  2   | (6/6) Accurately ripped  3   | (6/6) Accurately ripped  4   | (6/6) Accurately ripped  5   | (6/6) Accurately ripped  6   | (6/6) Accurately ripped  7   | (6/6) Accurately ripped  8   | (6/6) Accurately ripped  9   | (6/6) Accurately ripped 10   | (6/6) Accurately ripped 11   | (6/6) Accurately ripped==== Log checksum 526BCAA3973C633159A12E748387E998F83B25A26EE8FCD489FED48B9E27F79B ====
Moon Side

скрытый текст

Exact Audio Copy V1.1 from 23. June 2015EAC extraction logfile from 17. April 2019, 17:44Various Artists / Planets of the Universe: Moon SideUsed drive  : PIONEER BD-RW   BDR-208M   Adapter: 1  ID: 0Read mode               : SecureUtilize accurate stream : YesDefeat audio cache      : YesMake use of C2 pointers : NoRead offset correction                      : 667Overread into Lead-In and Lead-Out          : NoFill up missing offset samples with silence : YesDelete leading and trailing silent blocks   : NoNull samples used in CRC calculations       : YesUsed interface                              : Native Win32 interface for Win NT & 2000Used output format              : User Defined EncoderSelected bitrate                : 1024 kBit/sQuality                         : HighAdd ID3 tag                     : NoCommand line compressor         : C:\Program Files (x86)\Exact Audio Copy\Flac\flac.exeAdditional command line options : -V -8 -T "Date=%year%" -T "Genre=%genre%" %source%TOC of the extracted CD     Track |   Start  |  Length  | Start sector | End sector    ---------------------------------------------------------        1  |  0:00.00 |  5:15.27 |         0    |    23651        2  |  5:15.27 |  5:28.35 |     23652    |    48286        3  | 10:43.62 |  4:30.55 |     48287    |    68591        4  | 15:14.42 |  4:02.05 |     68592    |    86746        5  | 19:16.47 |  6:31.38 |     86747    |   116109        6  | 25:48.10 |  3:25.20 |    116110    |   131504        7  | 29:13.30 |  4:54.12 |    131505    |   153566        8  | 34:07.42 |  6:31.38 |    153567    |   182929        9  | 40:39.05 |  6:20.32 |    182930    |   211461       10  | 46:59.37 |  4:17.03 |    211462    |   230739       11  | 51:16.40 |  3:56.52 |    230740    |   248491       12  | 55:13.17 |  4:12.13 |    248492    |   267404       13  | 59:25.30 |  5:05.27 |    267405    |   290306       14  | 64:30.57 |  5:03.73 |    290307    |   313104       15  | 69:34.55 |  4:04.40 |    313105    |   331444Range status and errorsSelected range     Filename C:\Users\jean-mini\Music\Various Artists - Planets of the Universe- Moon Side.wav     Peak level 98.0 %     Extraction speed 7.8 X     Range quality 99.9 %     Test CRC B8AE440E     Copy CRC B8AE440E     Copy OKNo errors occurredAccurateRip summaryTrack  1  accurately ripped (confidence 3)  [19716A93]  (AR v1)Track  2  accurately ripped (confidence 3)  [6BA2FB0B]  (AR v1)Track  3  accurately ripped (confidence 3)  [74C551AE]  (AR v1)Track  4  accurately ripped (confidence 3)  [875AC9B8]  (AR v1)Track  5  accurately ripped (confidence 3)  [912F114D]  (AR v1)Track  6  accurately ripped (confidence 3)  [2D99BD1A]  (AR v1)Track  7  accurately ripped (confidence 3)  [0B600E62]  (AR v1)Track  8  accurately ripped (confidence 3)  [30424D9A]  (AR v1)Track  9  accurately ripped (confidence 3)  [49E967B6]  (AR v1)Track 10  accurately ripped (confidence 2)  [530779AB]  (AR v2)Track 11  accurately ripped (confidence 3)  [1B0363C6]  (AR v1)Track 12  accurately ripped (confidence 3)  [8D76C840]  (AR v1)Track 13  accurately ripped (confidence 3)  [820D47A6]  (AR v1)Track 14  accurately ripped (confidence 3)  [1816504C]  (AR v1)Track 15  accurately ripped (confidence 3)  [57FDFDF9]  (AR v1)All tracks accurately rippedEnd of status report---- CUETools DB Plugin V2.1.6[CTDB TOCID: VwTu6BOgXDuRe6gNB5sPFG3iTFU-] foundSubmit result: VwTu6BOgXDuRe6gNB5sPFG3iTFU- has been confirmedTrack | CTDB Status  1   | (6/6) Accurately ripped  2   | (6/6) Accurately ripped  3   | (6/6) Accurately ripped  4   | (6/6) Accurately ripped  5   | (6/6) Accurately ripped  6   | (6/6) Accurately ripped  7   | (6/6) Accurately ripped  8   | (6/6) Accurately ripped  9   | (6/6) Accurately ripped 10   | (6/6) Accurately ripped 11   | (6/6) Accurately ripped 12   | (6/6) Accurately ripped 13   | (6/6) Accurately ripped 14   | (6/6) Accurately ripped 15   | (6/6) Accurately ripped==== Log checksum 205E3CE6F8964682F0A5537869E087A2501D278A6E48A72CFAC4FF32B4053ABB ====
Доп. информация:

To download the content you need:
1. Download and install torrent client [for Windows] or for mobile system
2. Click on [Download]
Attention.
If the test YOU are NOT a ROBOT - does not work, then You are using an outdated browser.
Install the current browser and click on [Download]
Security: torrent client is allowed by Kaspersky.

[asmlocator.ru].t635205.torrent 
Torrent: Registered [ 2019-05-11 22:35 ] · AB209087D87E85615980D033DDAF624BF6D80A9F

Download .torrent

Download

16 KB

Status: checked
Completed: 0 times
Size: 738 MB
terms.php
[Profile] [PM]
Display posts:    
Reply to topic

Current time is: 23-Aug 19:14

All times are UTC ± 0



You cannot post new topics in this forum
You cannot reply to topics in this forum
You cannot edit your posts in this forum
You cannot delete your posts in this forum
You cannot vote in polls in this forum
You cannot attach files in this forum
You can download files in this forum