Шоколадная паника / The Chocolate Panic Picture Show [OVA] [1 из 1] [Без хардсаба] [JAP] [1985, музыкальный, VHSRip]

Reply to topic
DL-List and Torrent activity
Size:  358 MB   |    Registered:  15 days   |    Completed:  0 times

Seeder not seen: Never

 
   
 
 
Author Message

star21 ®

Gender: Female

Longevity: 3 years 6 months

Posts: 552209

Location: Екатеринбург

Post 07-May-2019 08:30

[Quote]

Шоколадная паника / The Chocolate Panic Picture Show / ザ・チョコレートパニック・ピクチャーショー Страна: Япония
Год выпуска: 1985
Жанр: музыкальный
Тип: OVA
Продолжительность: 1 эп. 25 мин.
Режиссер: Kazuyoshi Hirose
Студия: Barque / Studio 2 BОписание: Странное нечто, явно снятое под какими-то веществами, скорее всего галлюциногенными. Такие наркотики мне по нраву. И музыка там хорошая.
© GGX_2Качество: VHSRip
Тип релиза: Без хардсаба
Формат видео: MP4
Релиз/Автор рипа: key-anime
Видео: AVC, 720x480, 1 655 kb/s, 23.976 fps, 8 bit
Аудио: jpn(int), AAC, 320 kb/s, 48.0 kHz, 2 chПеревод: Не требуется

Подробные тех. данные

GeneralComplete name                            : F:\1\MR\[key anime] The Chocolate Panic Picture Show\[key anime] The Chocolate Panic Picture Show OVA [1985].mp4Format                                   : MPEG-4Format profile                           : Base MediaCodec ID                                 : isom (isom)File size                                : 358 MiBDuration                                 : 25 min 18 sOverall bit rate mode                    : VariableOverall bit rate                         : 1 976 kb/sEncoded date                             : UTC 2014-11-03 00:17:42Tagged date                              : UTC 2014-11-03 00:17:42VideoID                                       : 1Format                                   : AVCFormat/Info                              : Advanced Video CodecFormat profile                           : High@L3Format settings                          : CABAC / 4 Ref FramesFormat settings, CABAC                   : YesFormat settings, RefFrames               : 4 framesCodec ID                                 : avc1Codec ID/Info                            : Advanced Video CodingDuration                                 : 25 min 18 sBit rate                                 : 1 655 kb/sMaximum bit rate                         : 6 572 kb/sWidth                                    : 720 pixelsHeight                                   : 480 pixelsDisplay aspect ratio                     : 4:3Frame rate mode                          : ConstantFrame rate                               : 23.976 FPSColor space                              : YUVChroma subsampling                       : 4:2:0Bit depth                                : 8 bitsScan type                                : ProgressiveBits/(Pixel*Frame)                       : 0.200Stream size                              : 299 MiB (84%)Title                                    : [key-anime] The Chocole Panic Picture Show OVA [720x480_x264_AAC]Writing library                          : x264 core 98 r1649 c54c47dEncoding settings                        : cabac=1 / ref=3 / deblock=1:0:0 / analyse=0x3:0x113 / me=hex / subme=7 / psy=1 / psy_rd=1.00:0.00 / mixed_ref=1 / me_range=16 / chroma_me=1 / trellis=1 / 8x8dct=1 / cqm=0 / deadzone=21,11 / fast_pskip=1 / chroma_qp_offset=-2 / threads=1 / sliced_threads=0 / nr=0 / decimate=1 / interlaced=0 / constrained_intra=0 / bframes=3 / b_pyramid=2 / b_adapt=1 / b_bias=0 / direct=1 / weightb=1 / weightp=2 / keyint=250 / keyint_min=25 / scenecut=40 / intra_refresh=0 / rc_lookahead=40 / rc=2pass / mbtree=1 / bitrate=1655 / ratetol=1.0 / qcomp=0.60 / qpmin=10 / qpmax=51 / qpstep=4 / cplxblur=20.0 / qblur=0.5 / ip_ratio=1.40 / aq=1:1.00Encoded date                             : UTC 2014-11-01 22:49:47Tagged date                              : UTC 2014-11-03 00:17:44AudioID                                       : 2Format                                   : AACFormat/Info                              : Advanced Audio CodecFormat profile                           : LCCodec ID                                 : mp4a-40-2Duration                                 : 25 min 18 sBit rate mode                            : VariableBit rate                                 : 320 kb/sMaximum bit rate                         : 354 kb/sChannel(s)                               : 2 channelsChannel positions                        : Front: L RSampling rate                            : 48.0 kHzFrame rate                               : 46.875 FPS (1024 SPF)Compression mode                         : LossyStream size                              : 57.9 MiB (16%)Title                                    : [key-anime] The Chocole Panic Picture Show OVA [720x480_x264_AAC] AUDIOLanguage                                 : JapaneseEncoded date                             : UTC 2014-11-03 00:17:43Tagged date                              : UTC 2014-11-03 00:17:44

Скриншоты


To download the content you need:
1. Download and install torrent client [for Windows] or for mobile system
2. Click on [Download]
Attention.
If the test YOU are NOT a ROBOT - does not work, then You are using an outdated browser.
Install the current browser and click on [Download]
Security: torrent client is allowed by Kaspersky.

[asmlocator.ru].t634120.torrent 
Torrent: Registered [ 2019-05-07 08:30 ] · 4D2335B15E197A953D50A4FB7CD6A1CB4B14EBD7

Download .torrent

Download

15 KB

Status: checked
Completed: 0 times
Size: 358 MB
terms.php
[Profile] [PM]
Display posts:    
Reply to topic

Current time is: 23-May 02:07

All times are UTC ± 0



You cannot post new topics in this forum
You cannot reply to topics in this forum
You cannot edit your posts in this forum
You cannot delete your posts in this forum
You cannot vote in polls in this forum
You cannot attach files in this forum
You can download files in this forum