Тайный мир Анны / Ana y Bruno (Карлос Каррера / Carlos Carrera) [2017, Мексика, мультфильм, приключения, WEB-DLRip] Dub (iTunes)

Reply to topic
DL-List and Torrent activity
Size:  1.46 GB   |    Registered:  3 months 16 days   |    Completed:  3 times

Seeder not seen: 52 minutes

 
   
 
 
Author Message

star21 ®

Gender: Female

Longevity: 3 years 9 months

Posts: 551989

Location: Екатеринбург

Post 07-May-2019 08:30

[Quote]

Тайный мир Анны / Ana y Bruno Страна: Мексика
Жанр: мультфильм, приключения
Год выпуска: 2017
Продолжительность: 01:32:28Перевод: Профессиональный (дублированный) | iTunes
Субтитры: нет
Оригинальная аудиодорожка: нетРежиссер: Карлос Каррера / Carlos CarreraВ ролях: Галья Майер, Дамиан Алькасар, Марина Де Тавира, Эктор Бонилья, Сильверио Паласиос, Маурицио Исаак, Хульета Эгуррола, Карлос Кобос, Рикардо Эскерра, Дэниэл КаррераОписание: История о необычной девочке Анне, которая живёт в мире фантазий, иллюзий и волшебства. Вместе с новыми чудаковатыми друзьями, которых кроме Анны никто не видит, она отправится в увлекательное путешествие за мечтой…[imdb]http://www.imdb.com/title/tt1183352[/imdb]Качество видео: WEB-DLRip
Формат видео: AVIВидео: 720x304 (2.37:1), 25 fps, XviD build 73 ~1859 kbps avg, 0.34 bit/pixel
Аудио: 48 kHz, AC3 Dolby Digital, 3/2 (L,C,R,l,r) + LFE ch, ~384 kbps
Сэмпл

MediaInfo


Код:
Формат : AVI
Формат/Информация : Audio Video Interleave
Размер файла : 1,46 Гбайт
Продолжительность : 1 ч. 32 м.
Общий поток : 2254 Кбит/сек
Название фильма : Тайный мир Анны_2017_WEB-DLRip
Программа кодирования : VirtualDubMod 1.5.10.3 | www.virtualdub-fr.org || (build 2550/release)
Авторское право : порошковВидео
Идентификатор : 0
Формат : MPEG-4 Visual
Профиль формата : Advanced Simple@L5
Настройки формата : BVOP1 / Custom Matrix
Параметр BVOP формата : 1
Параметр QPel формата : Нет
Параметр GMC формата : Без точки перехода
Параметр матрицы формата : Выборочная
Идентификатор кодека : XVID
Идентификатор кодека/Подсказка : XviD
Продолжительность : 1 ч. 32 м.
Битрейт : 1860 Кбит/сек
Ширина : 720 пикселей
Высота : 304 пикселя
Соотношение сторон : 2,35:1
Частота кадров : 25,000 кадров/сек
Цветовое пространство : YUV
Субдискретизация насыщенности : 4:2:0
Битовая глубина : 8 бит
Тип развёртки : Прогрессивная
Метод сжатия : С потерями
Бит/(Пиксели*Кадры) : 0.340
Размер потока : 1,20 Гбайт (83%)
Библиотека кодирования : XviD 73Аудио
Идентификатор : 1
Формат : AC-3
Формат/Информация : Audio Coding 3
Коммерческое название : Dolby Digital
Идентификатор кодека : 2000
Продолжительность : 1 ч. 32 м.
Вид битрейта : Постоянный
Битрейт : 384 Кбит/сек
Каналы : 6 каналов
ChannelLayout : L R C LFE Ls Rs
Частота : 48,0 КГц
Частота кадров : 31,250 кадров/сек (1536 SPF)
Битовая глубина : 16 бит
Метод сжатия : С потерями
Размер потока : 254 Мбайт (17%)
Выравнивание : Разделение по промежуткам
Продолжительность промежутка : 40 мс. (1,00 видеокадр)
Время предзагрузки промежутка : 500 мс.
ServiceKind/String : Complete Main

Скриншоты



To download the content you need:
1. Download and install torrent client [for Windows] or for mobile system
2. Click on [Download]
Attention.
If the test YOU are NOT a ROBOT - does not work, then You are using an outdated browser.
Install the current browser and click on [Download]
Security: torrent client is allowed by Kaspersky.

[asmlocator.ru].t634119.torrent 
Torrent: Registered [ 2019-05-07 08:30 ] · 5881A9424BDDDA0DCDFD081F5EA26B34582EF8D4

Download .torrent

Download

15 KB

Status: checked
Completed: 3 times
Size: 1.46 GB
terms.php
[Profile] [PM]
Display posts:    
Reply to topic

Current time is: 23-Aug 19:12

All times are UTC ± 0



You cannot post new topics in this forum
You cannot reply to topics in this forum
You cannot edit your posts in this forum
You cannot delete your posts in this forum
You cannot vote in polls in this forum
You cannot attach files in this forum
You can download files in this forum